↑↓Torrent.by
Поиск
Логин: Регистрация
Пароль: Восстановить пароль

Про Веру [01-02 из 08] (2019) HDTV 1080i от GeneralFilm

Скачать pro-veru-01-02-iz-08-2019-hdtv-1080i-ot-generalfilm.torrent
U Магнитная ссылка Размер: 4.86 GB Раздают: 37 Качают: 11 Добавлен: 2020-01-14 06:53:43
Про Веру [01-02 из 08] (2019) HDTV 1080i от GeneralFilm

Год выпуска: 2019
Жанр:  Драма
Выпущено: Россия, Sreda Production Company
Режиссер: Евгений Семенов
В ролях: Вера Панфилова, Даниил Страхов, Владислав Новицкий, Екатерина Дубакина, Олег Хамитов, Кристина Исайкина, Игорь Скляр, Денис Синявский, Артур Ваха, Александр Кудренко, Евгений Антропов, Ирина Горячева, Ольга Белинская, Юлия Силаева, Мария Антонова

О фильме: Одинокая девушка Вера живёт учёбой и заботой о шестнадцатилетнем брате - трудному подростку Вера старается заменить и мать, и отца, которых нет уже несколько лет. Как «подарок судьбы», в её жизнь врывается взрослый мужчина, успешный бизнесмен-строитель. Страсть и высокий романтический полёт оборачиваются для Веры трагедией: бизнесмен Максим проворачивает вокруг Веры масштабную финансовую аферу, после чего она становится главным фигурантом уголовного дела. В последний момент перед арестом, Вера успевает понять суть махинаций, и решается на опасный поступок — она крадёт у Максима пять миллионов долларов. В колонии, Вера замышляет месть — использовать украденные деньги, что бы уничтожить своего обидчика и его подельников, партнёров. Но когда она выходит на свободу, планы меняются, потому что неожиданно выясняется, что у Максима есть жена, трое детей: у его подельников тоже есть семьи, и просто «уничтожить» становится не так интересно...

Качество: HDTV (1080i)
Видео: MPEG-TS AVC, ~ 6000  Кбит/с, 1920x1080, 25 кадр/с
Аудио: Русский  (AC3, 2 ch, 384 Кбит/с), (MP2, 2 ch, 192 Кбит/с)
Продолжительность: 2 х ~ 00:50:00
Перевод: Не требуется
Субтитры: нет

Релиз:


[+] MediaInfo

Общее
Идентификатор                            : 1 (0x1)
Полное имя                               : D:ЗаписьPro Veru.HDTV(1080i).GeneralFilm1.Pro Veru.HDTV(1080i).GeneralFilm.ts
Формат                                   : MPEG-TS
Размер файла                             : 2,66 Гбайт
Продолжительность                        : 53 м.
Режим общего битрейта                    : Переменный
Общий поток                              : 7150 Кбит/сек

Видео
Идентификатор                            : 1904 (0x770)
Идентификатор меню                       : 5640 (0x1608)
Формат                                   : AVC
Формат/Информация                        : Advanced Video Codec
Профиль формата                          : High@L4.0
Параметр CABAC формата                   : Да
Параметр ReFrames формата                : 3 кадра
Идентификатор кодека                     : 27
Продолжительность                        : 53 м.
Битрейт                                  : 6215 Кбит/сек
Ширина                                   : 1920 пикселей
Высота                                   : 1080 пикселей
Соотношение сторон                       : 16:9
Частота кадров                           : 25,000 кадров/сек
Стандарт вещания                         : Component
Цветовое пространство                    : YUV
Субдискретизация насыщенности            : 4:2:0
Битовая глубина                          : 8 бит
Тип развёртки                            : Чересстрочная
Порядок развёртки                        : Верхнее поле первое
Бит/(Пиксели*Кадры)                      : 0.120
Размер потока                            : 2,31 Гбайт (87%)
Основные цвета                           : BT.709
Характеристики трансфера                 : BT.709
Коэффициенты матрицы                     : BT.709

Аудио #1
Идентификатор                            : 2904 (0xB58)
Идентификатор меню                       : 5640 (0x1608)
Формат                                   : AC-3
Формат/Информация                        : Audio Coding 3
Расширение режима                        : CM (complete main)
Параметр Endianness формата              : Big
Идентификатор кодека                     : 6
Продолжительность                        : 53 м.
Вид битрейта                             : Постоянный
Битрейт                                  : 384 Кбит/сек
Каналы                                   : 6 каналов
Расположение каналов                     : Front: L C R, Side: L R, LFE
Частота                                  : 48,0 КГц
Битовая глубина                          : 16 бит
Метод сжатия                             : С потерями
Задержка видео                           : -80 мс.
Размер потока                            : 146 Мбайт (5%)
Язык                                     : Russian

Аудио #2
Идентификатор                            : 2905 (0xB59)
Идентификатор меню                       : 5640 (0x1608)
Формат                                   : MPEG Audio
Версия формата                           : Version 1
Профиль формата                          : Layer 2
Идентификатор кодека                     : 3
Продолжительность                        : 53 м.
Вид битрейта                             : Постоянный
Битрейт                                  : 192 Кбит/сек
Каналы                                   : 2 канала
Частота                                  : 48,0 КГц
Метод сжатия                             : С потерями
Задержка видео                           : -80 мс.
Размер потока                            : 73,1 Мбайт (3%)
Язык                                     : Russian

Общее
Идентификатор                            : 1 (0x1)
Полное имя                               : D:ЗаписьPro Veru.HDTV(1080i).GeneralFilm2.Pro Veru.HDTV(1080i).GeneralFilm.ts
Формат                                   : MPEG-TS
Размер файла                             : 2,21 Гбайт
Продолжительность                        : 46 м.
Режим общего битрейта                    : Переменный
Общий поток                              : 6778 Кбит/сек

Видео
Идентификатор                            : 1904 (0x770)
Идентификатор меню                       : 5640 (0x1608)
Формат                                   : AVC
Формат/Информация                        : Advanced Video Codec
Профиль формата                          : High@L4.0
Параметр CABAC формата                   : Да
Параметр ReFrames формата                : 3 кадра
Идентификатор кодека                     : 27
Продолжительность                        : 46 м.
Битрейт                                  : 5861 Кбит/сек
Ширина                                   : 1920 пикселей
Высота                                   : 1080 пикселей
Соотношение сторон                       : 16:9
Частота кадров                           : 25,000 кадров/сек
Стандарт вещания                         : Component
Цветовое пространство                    : YUV
Субдискретизация насыщенности            : 4:2:0
Битовая глубина                          : 8 бит
Тип развёртки                            : Чересстрочная
Порядок развёртки                        : Верхнее поле первое
Бит/(Пиксели*Кадры)                      : 0.113
Размер потока                            : 1,91 Гбайт (86%)
Основные цвета                           : BT.709
Характеристики трансфера                 : BT.709
Коэффициенты матрицы                     : BT.709

Аудио #1
Идентификатор                            : 2904 (0xB58)
Идентификатор меню                       : 5640 (0x1608)
Формат                                   : AC-3
Формат/Информация                        : Audio Coding 3
Расширение режима                        : CM (complete main)
Параметр Endianness формата              : Big
Идентификатор кодека                     : 6
Продолжительность                        : 46 м.
Вид битрейта                             : Постоянный
Битрейт                                  : 384 Кбит/сек
Каналы                                   : 6 каналов
Расположение каналов                     : Front: L C R, Side: L R, LFE
Частота                                  : 48,0 КГц
Битовая глубина                          : 16 бит
Метод сжатия                             : С потерями
Задержка видео                           : -80 мс.
Размер потока                            : 128 Мбайт (6%)
Язык                                     : Russian

Аудио #2
Идентификатор                            : 2905 (0xB59)
Идентификатор меню                       : 5640 (0x1608)
Формат                                   : MPEG Audio
Версия формата                           : Version 1
Профиль формата                          : Layer 2
Идентификатор кодека                     : 3
Продолжительность                        : 46 м.
Вид битрейта                             : Постоянный
Битрейт                                  : 192 Кбит/сек
Каналы                                   : 2 канала
Частота                                  : 48,0 КГц
Метод сжатия                             : С потерями
Задержка видео                           : -80 мс.
Размер потока                            : 64,0 Мбайт (3%)
Язык                                     : Russian




Скриншоты:
[+] Всего файлов в раздаче - 2:
01.Pro Veru.HDTV(1080i).GeneralFilm.ts2.66 GB
02.Pro Veru.HDTV(1080i).GeneralFilm.ts2.21 GB

Показать еще раздачи по запросу веру:
Вчера U Про Веру [01-08 из 08] (2017) HDTVRip-AVC от Files-x 5.97 GB ↑ 91 ↓ 90
Вчера U Про Веру [01-08 из 08] (2019) HDTVRip 720p от GeneralFilm 10.06 GB ↑ 32 ↓ 73
Вчера U Про Веру [01-08 из 08] (2019) HDTV 1080i от GeneralFilm 18.34 GB ↑ 36 ↓ 75
Вчера U Про Веру [01-08 из 08] (2019) HDTVRip от GeneralFilm 4.90 GB ↑ 26 ↓ 52
2020-01-16 U Про Веру [01-06 из 08] (2017) HDTVRip-AVC от Files-x 4.48 GB ↑ 46 ↓ 47
2020-01-16 U Про Веру [01-06 из 08] (2019) HDTVRip 720p от GeneralFilm 7.55 GB ↑ 93 ↓ 105
2020-01-16 U Про Веру [01-08 из 08] (2019) SATRip 4.69 GB ↑ 82 ↓ 244

Отзывы
Зарегистрируйтесь чтобы добавить комментарий.
Обратная связь
Copyleft ©