↑↓torrent.by
Поиск
Логин: Регистрация
Пароль: Восстановить пароль

ID: Вторжение / ID: Invaded [01x01-03 из 13] (2020) WEBRip 1080p | StudioBand

Скачать id-vtorzhenie-invaded-01x01-03-iz-13-2020-webrip-1080p-studioband.torrent
U Магнитная ссылка Размер: 5.00 GB Раздают: 25 Качают: 14 Добавлен: 2020-01-14 06:54:48
ID: Вторжение / ID: Invaded [01x01-03 из 13] (2020) WEBRip 1080p | StudioBand

Название: ID: Вторжение
Оригинальное название: ID: Invaded
Год выхода: 2020
Жанр: детектив, криминал, фантастика
Режиссер: Эи Аоки
В ролях: Кэндзиро Цуда, Сара Эми Бридкат, Дзюнъя Эноки, Ёсимаса Хосоя, Мао Итимити, Сюхэй Ивасэ, Ватару Като, Такаси Кондо, Манабу Мурадзи, Ринтаро Ниси

О фильме:
Добро пожаловать в поразительный виртуальный мир! Детективу Сакайдо предстоит расследовать жестокое убийство девочки, о которой известно только имя — Каэру. Это дело отличается от всех, какими он занимался прежде… Ведь сам мир начинает вертеться вокруг него, подвергая сомнению всё, что думает и во что верит Сакайдо! © Wakanim


Страна: Япония
Продолжительность: ~ 00:24:00 (серия)
Перевод: Дублированный | StudioBand [Wakanim]

Файл
Формат: MP4
Кодек: MPEG-4 AVC
Качество: WEBRip 1080p
Видео: 1920x1080, ~ 7 850 kb/s, 23.976 FPS. 8 bits
Аудио (русский): AAC LC, ~ 306 kb/s, 2 channels, 48.0 kHz
Субтитры: отсутствуют

12.01.2020 обновлено. Добавлена 3-я серия.


[+] MediaInfo

1-я серия

General
Complete name               : ID_INVADED_01_RU_HD.mp4
Format                      : MPEG-4
Format profile              : Base Media
Codec ID                    : isom (isom/iso2/avc1/mp41)
File size                   : 1.40 GiB
Duration                    : 24 min 37 s
Overall bit rate mode       : Variable
Overall bit rate            : 8 161 kb/s
Writing application         : Lavf58.12.100

Video
ID                          : 1
Format                      : AVC
Format/Info                 : Advanced Video Codec
Format profile              : High@L4.1
Format settings             : CABAC / 4 Ref Frames
Format settings, CABAC      : Yes
Format settings, Reference  : 4 frames
Codec ID                    : avc1
Codec ID/Info               : Advanced Video Coding
Duration                    : 24 min 37 s
Bit rate                    : 7 850 kb/s
Width                       : 1 920 pixels
Height                      : 1 080 pixels
Display aspect ratio        : 16:9
Frame rate mode             : Constant
Frame rate                  : 23.976 (24000/1001) FPS
Color space                 : YUV
Chroma subsampling          : 4:2:0
Bit depth                   : 8 bits
Scan type                   : Progressive
Bits/(Pixel*Frame)          : 0.158
Stream size                 : 1.35 GiB (96%)
Writing library             : x264 core 155 r2901 7d0ff22
Encoding settings           : cabac=1 / ref=4 / deblock=1:1:1 / analyse=0x3:0x133 / me=umh / subme=10 / psy=1 / psy_rd=0.40:0.00 / mixed_ref=1 / me_range=24 / chroma_me=1 / trellis=2 / 8x8dct=1 / cqm=0 / deadzone=21,11 / fast_pskip=1 / chroma_qp_offset=-2 / threads=24 / lookahead_threads=6 / sliced_threads=0 / nr=0 / decimate=1 / interlaced=0 / bluray_compat=0 / constrained_intra=0 / bframes=10 / b_pyramid=2 / b_adapt=2 / b_bias=0 / direct=3 / weightb=1 / open_gop=0 / weightp=2 / keyint=250 / keyint_min=23 / scenecut=40 / intra_refresh=0 / rc_lookahead=60 / rc=crf / mbtree=1 / crf=12.0 / qcomp=0.60 / qpmin=0 / qpmax=69 / qpstep=4 / ip_ratio=1.40 / aq=1:0.60
Codec configuration box     : avcC

Audio
ID                          : 2
Format                      : AAC LC
Format/Info                 : Advanced Audio Codec Low Complexity
Codec ID                    : mp4a-40-2
Duration                    : 24 min 37 s
Duration_LastFrame          : -6 ms
Bit rate mode               : Variable
Bit rate                    : 306 kb/s
Maximum bit rate            : 320 kb/s
Channel(s)                  : 2 channels
Channel layout              : L R
Sampling rate               : 48.0 kHz
Frame rate                  : 46.875 FPS (1024 SPF)
Compression mode            : Lossy
Stream size                 : 53.9 MiB (4%)
Default                     : Yes
Alternate group             : 1

2-я серия

General
Complete name               : ID_INVADED_02_RU_HD.mp4
Format                      : MPEG-4
Format profile              : Base Media
Codec ID                    : isom (isom/iso2/avc1/mp41)
File size                   : 1.87 GiB
Duration                    : 24 min 40 s
Overall bit rate mode       : Variable
Overall bit rate            : 10.9 Mb/s
Writing application         : Lavf58.12.100

Video
ID                          : 1
Format                      : AVC
Format/Info                 : Advanced Video Codec
Format profile              : High@L4.1
Format settings             : CABAC / 4 Ref Frames
Format settings, CABAC      : Yes
Format settings, Reference  : 4 frames
Codec ID                    : avc1
Codec ID/Info               : Advanced Video Coding
Duration                    : 24 min 40 s
Bit rate                    : 10.6 Mb/s
Width                       : 1 920 pixels
Height                      : 1 080 pixels
Display aspect ratio        : 16:9
Frame rate mode             : Constant
Frame rate                  : 23.976 (24000/1001) FPS
Color space                 : YUV
Chroma subsampling          : 4:2:0
Bit depth                   : 8 bits
Scan type                   : Progressive
Bits/(Pixel*Frame)          : 0.212
Stream size                 : 1.82 GiB (97%)
Writing library             : x264 core 155 r2901 7d0ff22
Encoding settings           : cabac=1 / ref=4 / deblock=1:1:1 / analyse=0x3:0x133 / me=umh / subme=10 / psy=1 / psy_rd=0.40:0.00 / mixed_ref=1 / me_range=24 / chroma_me=1 / trellis=2 / 8x8dct=1 / cqm=0 / deadzone=21,11 / fast_pskip=1 / chroma_qp_offset=-2 / threads=24 / lookahead_threads=6 / sliced_threads=0 / nr=0 / decimate=1 / interlaced=0 / bluray_compat=0 / constrained_intra=0 / bframes=10 / b_pyramid=2 / b_adapt=2 / b_bias=0 / direct=3 / weightb=1 / open_gop=0 / weightp=2 / keyint=250 / keyint_min=23 / scenecut=40 / intra_refresh=0 / rc_lookahead=60 / rc=crf / mbtree=1 / crf=12.0 / qcomp=0.60 / qpmin=0 / qpmax=69 / qpstep=4 / ip_ratio=1.40 / aq=1:0.60
Codec configuration box     : avcC

Audio
ID                          : 2
Format                      : AAC LC
Format/Info                 : Advanced Audio Codec Low Complexity
Codec ID                    : mp4a-40-2
Duration                    : 24 min 40 s
Duration_LastFrame          : -18 ms
Bit rate mode               : Variable
Bit rate                    : 312 kb/s
Maximum bit rate            : 320 kb/s
Channel(s)                  : 2 channels
Channel layout              : L R
Sampling rate               : 48.0 kHz
Frame rate                  : 46.875 FPS (1024 SPF)
Compression mode            : Lossy
Stream size                 : 55.2 MiB (3%)
Default                     : Yes
Alternate group             : 1

3-я серия

General
Complete name               : ID_INVADED_03_RU_HD.mp4
Format                      : MPEG-4
Format profile              : Base Media
Codec ID                    : isom (isom/iso2/avc1/mp41)
File size                   : 1.72 GiB
Duration                    : 24 min 41 s
Overall bit rate mode       : Variable
Overall bit rate            : 9 973 kb/s
Writing application         : Lavf58.12.100

Video
ID                          : 1
Format                      : AVC
Format/Info                 : Advanced Video Codec
Format profile              : High@L4.1
Format settings             : CABAC / 4 Ref Frames
Format settings, CABAC      : Yes
Format settings, Reference  : 4 frames
Codec ID                    : avc1
Codec ID/Info               : Advanced Video Coding
Duration                    : 24 min 41 s
Bit rate                    : 9 653 kb/s
Width                       : 1 920 pixels
Height                      : 1 080 pixels
Display aspect ratio        : 16:9
Frame rate mode             : Constant
Frame rate                  : 23.976 (24000/1001) FPS
Color space                 : YUV
Chroma subsampling          : 4:2:0
Bit depth                   : 8 bits
Scan type                   : Progressive
Bits/(Pixel*Frame)          : 0.194
Stream size                 : 1.67 GiB (97%)
Writing library             : x264 core 155 r2901 7d0ff22
Encoding settings           : cabac=1 / ref=4 / deblock=1:1:1 / analyse=0x3:0x133 / me=umh / subme=10 / psy=1 / psy_rd=0.40:0.00 / mixed_ref=1 / me_range=24 / chroma_me=1 / trellis=2 / 8x8dct=1 / cqm=0 / deadzone=21,11 / fast_pskip=1 / chroma_qp_offset=-2 / threads=24 / lookahead_threads=6 / sliced_threads=0 / nr=0 / decimate=1 / interlaced=0 / bluray_compat=0 / constrained_intra=0 / bframes=10 / b_pyramid=2 / b_adapt=2 / b_bias=0 / direct=3 / weightb=1 / open_gop=0 / weightp=2 / keyint=250 / keyint_min=23 / scenecut=40 / intra_refresh=0 / rc_lookahead=60 / rc=crf / mbtree=1 / crf=12.0 / qcomp=0.60 / qpmin=0 / qpmax=69 / qpstep=4 / ip_ratio=1.40 / aq=1:0.60
Codec configuration box     : avcC

Audio
ID                          : 2
Format                      : AAC LC
Format/Info                 : Advanced Audio Codec Low Complexity
Codec ID                    : mp4a-40-2
Duration                    : 24 min 41 s
Duration_LastFrame          : -1 ms
Bit rate mode               : Variable
Bit rate                    : 315 kb/s
Maximum bit rate            : 320 kb/s
Channel(s)                  : 2 channels
Channel layout              : L R
Sampling rate               : 48.0 kHz
Frame rate                  : 46.875 FPS (1024 SPF)
Compression mode            : Lossy
Stream size                 : 55.7 MiB (3%)
Default                     : Yes
Alternate group             : 1



Скриншоты:
[+] Всего файлов в раздаче - 3:
ID_INVADED_01_RU_HD.mp41.40 GB
ID_INVADED_03_RU_HD.mp41.72 GB
ID_INVADED_02_RU_HD.mp41.87 GB

Похожие раздачи по запросу - вторжение:
2020-01-09 U ID: Вторжение / ID:Invaded [01x02 из 13] (2020) WEBRip 720p | AniFilm 1.26 GB ↑ 30 ↓ 9
2020-01-08 U ID: Вторжение / ID:Invaded [01x02 из 13] (2020) WEBRip 1080p | AniFilm 2.80 GB ↑ 178 ↓ 81
2020-01-07 U ID: Вторжение / ID: Invaded [01x01-02 из ХХ] (2020) WEBRip 1080p | StudioBand 3.28 GB ↑ 42 ↓ 11

Отзывы
Зарегистрируйтесь чтобы добавить комментарий.
Обратная связь
Copyleft ©