↑↓torrent.by
Поиск
Логин: Регистрация
Пароль: Восстановить пароль

Наркоман Павлик [07х01-06 из 10] (2019) WEBRip 1080p

Скачать narkoman-pavlik-07h01-06-iz-10-2019-webrip-1080p.torrent
U Магнитная ссылка Размер: 5.92 GB Раздают: 82 Качают: 101 Добавлен: 2020-01-14 10:44:08
Наркоман Павлик [07х01-06 из 10] (2019) WEBRip 1080p

Название: Наркоман Павлик
Год выхода: 2019
Жанр: Комедия, короткометражный
Режиссер: Павел Радонцев
В ролях: Павел Радонцев, Денис Гущин, Кирилл Демидов, Антон Батищев, Илья Сорокин, Андрей Савицкий, Регина Вожова, Иван Солдаткин, Ольга Лапушкина, Михаил Мартынов, Хамид Дышниев, Андрей Мирославский, Артём Веретенников, Николай Гусляров

О сериале:
Короткометражный, юмористический сериал о приключениях Павлика, от участников проектов Comedy Club Samara Style, Comedy Club Saint-Petersburg. Сериал стремительно набирает популярность, фразы Павлика всё чаще встречаются на просторах рунета. "Здорова братиш!" - если вы слышали это и не знали откуда, смотрите. Очень угарная и ржачная тема!

Страна: Россия
Студия: Comedoz
Продолжительность: ~00:30:00
Перевод: Не требуется
Субтитры: Нет

Файл
Формат: MKV
Качество: WEBRip (1080p)

Видео: MPEG-4 AVC, ~ 5000 Кбит/с, 1920x1080
Звук: AC3, 2 ch, 192 Кбит/с
[+] MediaInfo
Общее
Уникальный идентификатор                 : 267693872318864993574250689561931354897 (0xC963F6E70882B96CC526FF7D7CA91311)
Полное имя                               : Павлик.S07E01.WEB-DL.1080p.mkv
Формат                                   : Matroska
Версия формата                           : Version 4
Размер файла                             : 697 Мбайт
Продолжительность                        : 18 м. 21 с.
Общий поток                              : 5308 Кбит/сек
Дата кодирования                         : UTC 2020-01-12 09:08:18
Программа кодирования                    : mkvmerge v42.0.0 ('Overtime') 64-bit
Библиотека кодирования                   : libebml v1.3.10 + libmatroska v1.5.2
Attachments                              : poster.jpg

Видео
Идентификатор                            : 1
Формат                                   : AVC
Формат/Информация                        : Advanced Video Codec
Профиль формата                          : Main@L4.1
Настройки формата                        : CABAC / 4 Ref Frames
Параметр CABAC формата                   : Да
Параметр RefFrames формата               : 4 кадра
Идентификатор кодека                     : V_MPEG4/ISO/AVC
Продолжительность                        : 18 м. 21 с.
Битрейт                                  : 5114 Кбит/сек
Ширина                                   : 1920 пикселей
Высота                                   : 1080 пикселей
Соотношение сторон                       : 16:9
Режим частоты кадров                     : Постоянный
Частота кадров                           : 25,000 кадров/сек
Цветовое пространство                    : YUV
Субдискретизация насыщенности            : 4:2:0
Битовая глубина                          : 8 бит
Тип развёртки                            : Прогрессивная
Бит/(Пиксели*Кадры)                      : 0.099
Размер потока                            : 671 Мбайт (96%)
Default                                  : Да
Forced                                   : Нет

Аудио
Идентификатор                            : 2
Формат                                   : AC-3
Формат/Информация                        : Audio Coding 3
Коммерческое название                    : Dolby Digital
Идентификатор кодека                     : A_AC3
Продолжительность                        : 18 м. 21 с.
Вид битрейта                             : Постоянный
Битрейт                                  : 192 Кбит/сек
Каналы                                   : 2 канала
ChannelLayout                            : L R
Частота                                  : 48,0 КГц
Частота кадров                           : 31,250 кадров/сек (1536 SPF)
Метод сжатия                             : С потерями
Размер потока                            : 25,2 Мбайт (4%)
Default                                  : Да
Forced                                   : Нет



Скриншоты:
[+] Всего файлов в раздаче - 6:
Павлик.S07E01.WEB-DL.1080p.mkv696.80 MB
Павлик.S07E02.WEB-DL.1080p.mkv1.07 GB
Павлик.S07E03.WEB-DL.1080p.mkv966.05 MB
Павлик.S07E04.WEB-DL.1080p.mkv1.06 GB
Павлик.S07E05.WEB-DL.1080p.mkv1.14 GB
Павлик.S07E06.WEB-DL.1080p.mkv1.03 GB

Отзывы
Зарегистрируйтесь чтобы добавить комментарий.
Обратная связь
Copyleft ©