↑↓Torrent.by
Поиск
Логин: Регистрация
Пароль: Восстановить пароль

Про Веру [01-02 из 08] (2019) HDTVRip 720p от GeneralFilm

Скачать pro-veru-01-02-iz-08-2019-hdtvrip-720p-ot-generalfilm.torrent
U Магнитная ссылка Размер: 2.57 GB Раздают: 36 Качают: 19 Добавлен: 2020-01-14 10:44:18
Про Веру [01-02 из 08] (2019) HDTVRip 720p от GeneralFilm

Год выпуска: 2019
Жанр:  Драма
Выпущено: Россия, Sreda Production Company
Режиссер: Евгений Семенов
В ролях: Вера Панфилова, Даниил Страхов, Владислав Новицкий, Екатерина Дубакина, Олег Хамитов, Кристина Исайкина, Игорь Скляр, Денис Синявский, Артур Ваха, Александр Кудренко, Евгений Антропов, Ирина Горячева, Ольга Белинская, Юлия Силаева, Мария Антонова

О фильме: Одинокая девушка Вера живёт учёбой и заботой о шестнадцатилетнем брате - трудному подростку Вера старается заменить и мать, и отца, которых нет уже несколько лет. Как «подарок судьбы», в её жизнь врывается взрослый мужчина, успешный бизнесмен-строитель. Страсть и высокий романтический полёт оборачиваются для Веры трагедией: бизнесмен Максим проворачивает вокруг Веры масштабную финансовую аферу, после чего она становится главным фигурантом уголовного дела. В последний момент перед арестом, Вера успевает понять суть махинаций, и решается на опасный поступок — она крадёт у Максима пять миллионов долларов. В колонии, Вера замышляет месть — использовать украденные деньги, что бы уничтожить своего обидчика и его подельников, партнёров. Но когда она выходит на свободу, планы меняются, потому что неожиданно выясняется, что у Максима есть жена, трое детей: у его подельников тоже есть семьи, и просто «уничтожить» становится не так интересно...

Качество: HDTVRip (720p)
Видео: MPEG-4 AVC, ~ 3500 Кбит/с, 1280x720, 25 fps
Аудио: Русский (AC3, 2 ch, 192 Кбит/с)
Продолжительность: 2 х ~ 00:50:00
Перевод: Не требуется
Субтитры: нет

Релиз:


[+] MediaInfo

Общее
Уникальный идентификатор                 : 228128901274100385086980428380791189014 (0xABA007390EFF88398EE8BC0F72FD2E16)
Полное имя                               : D:Pro Veru.HDTVRip.(720p).GeneralFilm1.Pro Veru.HDTVRip.(720p).GeneralFilm.mkv
Формат                                   : Matroska
Версия формата                           : Version 2
Размер файла                             : 1,37 Гбайт
Продолжительность                        : 53 м.
Общий поток                              : 3694 Кбит/сек
Дата кодирования                         : UTC 2020-01-13 18:00:02
Программа кодирования                    : mkvmerge v7.8.0 ('River Man') 32bit built on Apr  3 2015 12:11:22
Библиотека кодирования                   : libebml v1.3.1 + libmatroska v1.4.2

Видео
Идентификатор                            : 1
Формат                                   : AVC
Формат/Информация                        : Advanced Video Codec
Профиль формата                          : High@L4.1
Параметр CABAC формата                   : Да
Параметр ReFrames формата                : 9 кадров
Идентификатор кодека                     : V_MPEG4/ISO/AVC
Продолжительность                        : 53 м.
Битрейт                                  : 3500 Кбит/сек
Ширина                                   : 1280 пикселей
Высота                                   : 720 пикселей
Соотношение сторон                       : 16:9
Режим частоты кадров                     : Постоянный
Частота кадров                           : 25,000 кадров/сек
Цветовое пространство                    : YUV
Субдискретизация насыщенности            : 4:2:0
Битовая глубина                          : 8 бит
Тип развёртки                            : Прогрессивная
Бит/(Пиксели*Кадры)                      : 0.152
Размер потока                            : 1,27 Гбайт (93%)
Библиотека кодирования                   : x264 core 146 r2538 121396c
Настройки программы                      : cabac=1 / ref=9 / deblock=1:-2:-1 / analyse=0x3:0x133 / me=umh / subme=9 / psy=1 / psy_rd=1.00:0.15 / mixed_ref=1 / me_range=32 / chroma_me=1 / trellis=2 / 8x8dct=1 / cqm=0 / deadzone=21,11 / fast_pskip=0 / chroma_qp_offset=-3 / threads=18 / lookahead_threads=3 / sliced_threads=0 / nr=0 / decimate=1 / interlaced=0 / bluray_compat=0 / constrained_intra=0 / bframes=9 / b_pyramid=2 / b_adapt=2 / b_bias=0 / direct=1 / weightb=1 / open_gop=0 / weightp=2 / keyint=250 / keyint_min=25 / scenecut=40 / intra_refresh=0 / rc=2pass / mbtree=0 / bitrate=3500 / ratetol=1.0 / qcomp=0.60 / qpmin=0 / qpmax=69 / qpstep=4 / cplxblur=20.0 / qblur=0.5 / ip_ratio=1.40 / pb_ratio=1.30 / aq=2:1.00
Default                                  : Да
Forced                                   : Нет
Основные цвета                           : BT.709
Характеристики трансфера                 : BT.709
Коэффициенты матрицы                     : BT.709

Аудио
Идентификатор                            : 2
Формат                                   : AC-3
Формат/Информация                        : Audio Coding 3
Расширение режима                        : CM (complete main)
Параметр Endianness формата              : Big
Идентификатор кодека                     : A_AC3
Продолжительность                        : 53 м.
Вид битрейта                             : Постоянный
Битрейт                                  : 192 Кбит/сек
Каналы                                   : 2 канала
Расположение каналов                     : Front: L R
Частота                                  : 48,0 КГц
Битовая глубина                          : 16 бит
Метод сжатия                             : С потерями
Размер потока                            : 73,1 Мбайт (5%)
Default                                  : Да
Forced                                   : Нет

Общее
Уникальный идентификатор                 : 250468131721926989649980667466218505374 (0xBC6E6851E823FD589FDB7C9A5160849E)
Полное имя                               : D:Pro Veru.HDTVRip.(720p).GeneralFilm2.Pro Veru.HDTVRip.(720p).GeneralFilm.mkv
Формат                                   : Matroska
Версия формата                           : Version 2
Размер файла                             : 1,20 Гбайт
Продолжительность                        : 46 м.
Общий поток                              : 3694 Кбит/сек
Дата кодирования                         : UTC 2020-01-13 18:50:30
Программа кодирования                    : mkvmerge v7.8.0 ('River Man') 32bit built on Apr  3 2015 12:11:22
Библиотека кодирования                   : libebml v1.3.1 + libmatroska v1.4.2

Видео
Идентификатор                            : 1
Формат                                   : AVC
Формат/Информация                        : Advanced Video Codec
Профиль формата                          : High@L4.1
Параметр CABAC формата                   : Да
Параметр ReFrames формата                : 9 кадров
Идентификатор кодека                     : V_MPEG4/ISO/AVC
Продолжительность                        : 46 м.
Битрейт                                  : 3500 Кбит/сек
Ширина                                   : 1280 пикселей
Высота                                   : 720 пикселей
Соотношение сторон                       : 16:9
Режим частоты кадров                     : Постоянный
Частота кадров                           : 25,000 кадров/сек
Цветовое пространство                    : YUV
Субдискретизация насыщенности            : 4:2:0
Битовая глубина                          : 8 бит
Тип развёртки                            : Прогрессивная
Бит/(Пиксели*Кадры)                      : 0.152
Размер потока                            : 1,12 Гбайт (93%)
Библиотека кодирования                   : x264 core 146 r2538 121396c
Настройки программы                      : cabac=1 / ref=9 / deblock=1:-2:-1 / analyse=0x3:0x133 / me=umh / subme=9 / psy=1 / psy_rd=1.00:0.15 / mixed_ref=1 / me_range=32 / chroma_me=1 / trellis=2 / 8x8dct=1 / cqm=0 / deadzone=21,11 / fast_pskip=0 / chroma_qp_offset=-3 / threads=18 / lookahead_threads=3 / sliced_threads=0 / nr=0 / decimate=1 / interlaced=0 / bluray_compat=0 / constrained_intra=0 / bframes=9 / b_pyramid=2 / b_adapt=2 / b_bias=0 / direct=1 / weightb=1 / open_gop=0 / weightp=2 / keyint=250 / keyint_min=25 / scenecut=40 / intra_refresh=0 / rc=2pass / mbtree=0 / bitrate=3500 / ratetol=1.0 / qcomp=0.60 / qpmin=0 / qpmax=69 / qpstep=4 / cplxblur=20.0 / qblur=0.5 / ip_ratio=1.40 / pb_ratio=1.30 / aq=2:1.00
Default                                  : Да
Forced                                   : Нет
Основные цвета                           : BT.709
Характеристики трансфера                 : BT.709
Коэффициенты матрицы                     : BT.709

Аудио
Идентификатор                            : 2
Формат                                   : AC-3
Формат/Информация                        : Audio Coding 3
Расширение режима                        : CM (complete main)
Параметр Endianness формата              : Big
Идентификатор кодека                     : A_AC3
Продолжительность                        : 46 м.
Вид битрейта                             : Постоянный
Битрейт                                  : 192 Кбит/сек
Каналы                                   : 2 канала
Расположение каналов                     : Front: L R
Частота                                  : 48,0 КГц
Битовая глубина                          : 16 бит
Метод сжатия                             : С потерями
Размер потока                            : 64,0 Мбайт (5%)
Default                                  : Да
Forced                                   : Нет




Скриншоты:
[+] Всего файлов в раздаче - 2:
01.Pro Veru.HDTVRip.(720p).GeneralFilm.mkv1.37 GB
02.Pro Veru.HDTVRip.(720p).GeneralFilm.mkv1.20 GB

Показать еще раздачи по запросу веру:
Сегодня U Про Веру [01-08 из 08] (2017) HDTVRip-AVC от Files-x 5.97 GB ↑ 91 ↓ 89
Сегодня U Про Веру [01-08 из 08] (2019) HDTVRip 720p от GeneralFilm 10.06 GB ↑ 33 ↓ 71
Сегодня U Про Веру [01-08 из 08] (2019) HDTV 1080i от GeneralFilm 18.34 GB ↑ 36 ↓ 75
Сегодня U Про Веру [01-08 из 08] (2019) HDTVRip от GeneralFilm 4.90 GB ↑ 27 ↓ 51
Вчера U Про Веру [01-06 из 08] (2017) HDTVRip-AVC от Files-x 4.48 GB ↑ 46 ↓ 47
Вчера U Про Веру [01-06 из 08] (2019) HDTVRip 720p от GeneralFilm 7.55 GB ↑ 93 ↓ 105
Вчера U Про Веру [01-08 из 08] (2019) SATRip 4.69 GB ↑ 81 ↓ 244

Отзывы
Зарегистрируйтесь чтобы добавить комментарий.
Обратная связь
Copyleft ©