↑↓Torrent.by
Поиск
Логин: Регистрация
Пароль: Восстановить пароль

Джей и молчаливый Боб: Перезагрузка / Jay and Silent Bob Reboot (2019) BDRip 1080p | L2

Скачать dzhey-i-molchalivyy-bob-perezagruzka-jay-and-silent-reboot-2019-bdrip-1080p-l2.torrent
U Магнитная ссылка Размер: 7.84 GB Раздают: 181 Качают: 180 Добавлен: 2020-01-14 16:04:09
Джей и молчаливый Боб: Перезагрузка / Jay and Silent Bob Reboot (2019) BDRip 1080p | L2

Название: Джей и молчаливый Боб: Перезагрузка
Оригинальное название: Jay and Silent Bob Reboot
Год выхода: 2019
Жанр: Комедия
Режиссер: Кевин Смит
В ролях: Джейсон Мьюз, Кевин Смит, Мэтт Дэймон, Крис Хемсворт, Бен Аффлек, Мелисса Бенойст, Вэл Килмер, Розарио Доусон, Джо Манганьелло, Джеймс Ван Дер Бик, Харли Куинн Смит, Шеннон Элизабет, Дидрих Бадер

О фильме:
Неугомонные приятели Джей и Молчаливый Боб попадаются на незаконном выращивании марихуаны и предстают перед судом, но невесть откуда взявшийся адвокат умудряется снять с них все обвинения, ловко подсунув бумаги на подпись. Зато теперь друзья не имеют права называться своими знаменитыми именами, потому что права на них принадлежат голливудской студии, которая собралась снимать ребут приключений Пыхаря и Хроника. Вне себя от возмущения парочка в очередной раз отправляется в Голливуд сорвать съёмки ненавистного фильма, а по дороге попадет к бывшей девушке Джея, где выясняется, что у того есть дочь-подросток.

Страна: США
Студия: Destro Films, SModcast Pictures, Hideout Pictures, Miramax Films, Intercut Capital
Продолжительность: 01:45:19
Перевод: Любительский двухголосый | LakeFilms

Файл
Кодек: x.264
Качество: BDRip 1080p | Jay.and.Silent.Bob.Reboot.2019.1080p.BluRay.x264-AAA
Видео: MPEG-4 AVC, 8884 Kбит/с, 1920x808, 23.976 кадр/с
Аудио #1: Русский (АС3, 2 ch, 256 Кбит/с, 48.0 KHz) Любительский (двухголосый, закадровый) LakeFilms
Аудио #2: Английский (DTS, 6 ch, 1509 Кбит/с, 48.0 KHz)
Субтитры: Русские (Full, ненорматив (Sevkoxdd), английские
Присутствует ненормативная лексика!
► Без Рекламы!


[+] MediaInfo
Источник: Jay.and.Silent.Bob.Reboot.2019.1080p.BluRay.x264-AAA
General
Unique ID                      : 195537026127926851850631674974492347540 (0x931B0FB6F7CFE91790DA9F07B206CC94)
Complete name                  : Jay.and.Silent.Bob.Reboot.2019.BDRip.1080p.mkv
Format                         : Matroska
Format version                 : Version 4
File size                      : 7.84 GiB
Duration                       : 1 h 45 min
Overall bit rate               : 10.7 Mb/s
Encoded date                   : UTC 2020-01-14 09:47:27
Writing application            : mkvmerge v7.1.0 ('Good Love') 64bit built on Jul 27 2014 13:06:55
Writing library                : libebml v1.3.0 + libmatroska v1.4.1

Video
ID                             : 1
Format                         : AVC
Format/Info                    : Advanced Video Codec
Format profile                 : High@L4.1
Format settings                : CABAC / 5 Ref Frames
Format settings, CABAC         : Yes
Format settings, Reference fra : 5 frames
Codec ID                       : V_MPEG4/ISO/AVC
Duration                       : 1 h 45 min
Bit rate                       : 8 884 kb/s
Width                          : 1 920 pixels
Height                         : 808 pixels
Display aspect ratio           : 2.40:1
Frame rate mode                : Constant
Frame rate                     : 23.976 (24000/1001) FPS
Color space                    : YUV
Chroma subsampling             : 4:2:0
Bit depth                      : 8 bits
Scan type                      : Progressive
Bits/(Pixel*Frame)             : 0.239
Stream size                    : 6.53 GiB (83%)
Writing library                : x264 core 157 r2969 d4099dd
Encoding settings              : cabac=1 / ref=5 / deblock=1:0:0 / analyse=0x3:0x113 / me=umh / subme=8 / psy=1 / psy_rd=1.00:0.00 / mixed_ref=1 / me_range=16 / chroma_me=1 / trellis=1 / 8x8dct=1 / cqm=0 / deadzone=21,11 / fast_pskip=1 / chroma_qp_offset=-2 / threads=16 / lookahead_threads=2 / sliced_threads=0 / nr=0 / decimate=1 / interlaced=0 / bluray_compat=0 / constrained_intra=0 / bframes=3 / b_pyramid=2 / b_adapt=2 / b_bias=0 / direct=3 / weightb=1 / open_gop=0 / weightp=2 / keyint=240 / keyint_min=23 / scenecut=40 / intra_refresh=0 / rc_lookahead=50 / rc=2pass / mbtree=1 / bitrate=8884 / ratetol=1.0 / qcomp=0.60 / qpmin=0 / qpmax=69 / qpstep=4 / cplxblur=20.0 / qblur=0.5 / ip_ratio=1.40 / aq=1:1.00
Language                       : English
Default                        : Yes
Forced                         : No

Audio #1
ID                             : 2
Format                         : AC-3
Format/Info                    : Audio Coding 3
Commercial name                : Dolby Digital
Codec ID                       : A_AC3
Duration                       : 1 h 45 min
Bit rate mode                  : Constant
Bit rate                       : 256 kb/s
Channel(s)                     : 2 channels
Channel layout                 : L R
Sampling rate                  : 48.0 kHz
Frame rate                     : 31.250 FPS (1536 SPF)
Compression mode               : Lossy
Stream size                    : 193 MiB (2%)
Title                          : LakeFilms
Language                       : Russian
Service kind                   : Complete Main
Default                        : Yes
Forced                         : No

Audio #2
ID                             : 3
Format                         : DTS
Format/Info                    : Digital Theater Systems
Codec ID                       : A_DTS
Duration                       : 1 h 45 min
Bit rate mode                  : Constant
Bit rate                       : 1 509 kb/s
Channel(s)                     : 6 channels
Channel layout                 : C L R Ls Rs LFE
Sampling rate                  : 48.0 kHz
Frame rate                     : 93.750 FPS (512 SPF)
Bit depth                      : 24 bits
Compression mode               : Lossy
Stream size                    : 1.11 GiB (14%)
Language                       : English
Default                        : No
Forced                         : No

Text #1
ID                             : 4
Format                         : UTF-8
Codec ID                       : S_TEXT/UTF8
Codec ID/Info                  : UTF-8 Plain Text
Duration                       : 1 h 43 min
Bit rate                       : 151 b/s
Count of elements              : 1923
Stream size                    : 115 KiB (0%)
Language                       : Russian
Default                        : No
Forced                         : No

Text #2
ID                             : 5
Format                         : UTF-8
Codec ID                       : S_TEXT/UTF8
Codec ID/Info                  : UTF-8 Plain Text
Duration                       : 1 h 43 min
Bit rate                       : 94 b/s
Count of elements              : 2012
Stream size                    : 71.3 KiB (0%)
Language                       : English
Default                        : No
Forced                         : No

Menu
00:00:00.000                   : :Chapter 01
00:03:38.677                   : :Chapter 02
00:09:30.653                   : :Chapter 03
00:16:32.658                   : :Chapter 04
00:24:10.324                   : :Chapter 05
00:30:43.633                   : :Chapter 06
00:40:34.015                   : :Chapter 07
00:44:53.941                   : :Chapter 08
00:48:46.715                   : :Chapter 09
00:54:34.021                   : :Chapter 10
00:59:26.730                   : :Chapter 11
01:07:03.227                   : :Chapter 12
01:10:01.906                   : :Chapter 13
01:16:08.480                   : :Chapter 14
01:25:37.215                   : :Chapter 15
01:32:39.345                   : :Chapter 16



Скриншоты:
[+] Всего файлов в раздаче - 1:
Jay.and.Silent.Bob.Reboot.2019.BDRip.1080p.mkv7.84 GB

Показать еще раздачи по запросу джей:
Вчера U Джей и Молчаливый Боб наносят ответный удар / Jay and Silent Bob Strike Back (2001) BDRip 1080p by msltel | D, P, A 9.92 GB ↑ 20 ↓ 8
2020-01-17 U Джей и Молчаливый Боб: Перезагрузка / Jay and Silent Bob Reboot (2019) BDRip от MegaPeer | HDRezka Studio 1.46 GB ↑ 257 ↓ 158
2020-01-17 U Джей и Молчаливый Боб: Перезагрузка / Jay and Silent Bob Reboot (2019) BDRip от MegaPeer | HDRezka Studio 1.46 GB ↑ 105 ↓ 72
2020-01-17 U Джей и Молчаливый Боб: Перезагрузка / Jay and Silent Bob Reboot (2019) HDRip | HDRezka Studio 1.29 GB ↑ 97 ↓ 34
2020-01-17 U Джей и Молчаливый Боб: Перезагрузка / Jay and Silent Bob Reboot (2019) BDRip 1080p | HDRezka Studio 10.33 GB ↑ 108 ↓ 78
2020-01-17 U Джей и Молчаливый Боб: Перезагрузка / Jay and Silent Bob Reboot (2019) BDRip 720p | HDRezka Studio 3.90 GB ↑ 107 ↓ 50
2020-01-13 U Джей и молчаливый Боб: Перезагрузка / Jay and Silent Bob Reboot (2019) HDRip | LakeFilms 1.25 GB ↑ 338 ↓ 81

Отзывы
Зарегистрируйтесь чтобы добавить комментарий.
Обратная связь
Copyleft ©