↑↓torrent.by
Поиск
Логин: Регистрация
Пароль: Восстановить пароль

Обратный отсчет / Countdown (2019) BDRemux 1080p от селезень | iTunes

Скачать obratnyy-otschet-countdown-2019-bdremux-1080p-ot-selezen-itunes.torrent
U Магнитная ссылка Размер: 19.13 GB Раздают: 117 Качают: 157 Добавлен: 2020-01-14 16:04:13
Обратный отсчет / Countdown (2019) BDRemux 1080p от селезень | iTunes

Название: Обратный отсчет
Оригинальное название: Countdown
Год выхода: 2019
Жанр: Ужасы, триллер
Режиссер: Джастин Дек
В ролях: Элизабет Лэил, Чарли МакДермотт, Питер Фачинелли, Джордан Кэллоуэй, Талита Бейтман, Диллон Лэйн, Тичина Арнольд, Том Сегура, Лана МакКиссак, Энн Уинтерс

О фильме: В наш век гаджетов и высоких технологий для всего есть мобильное приложение. Хочешь узнать, сколько тебе осталось жить? Пожалуйста! Девушка видит на экране телефона неумолимый вердикт - ее жизнь оборвется через 3 дня. Сможет ли она избежать смерти, если обратный отсчет уже начался?

Страна: США
Студия: Boies/Schiller Film Group, Wrigley Pictures
Продолжительность: 01:31:34
Перевод: Дублированный | iTunes

Качество: BDRemux 1080p
Видео: MPEG-4 AVC, 1920x1080, 26.4 Mbit/s, 23.976 fps
Аудио #01: 48 kHz, AC3, 5.1, 384 Kbps | iTunes | RUS |
Аудио #02: 48 kHz, DTS-HD MA, 5.1, 3363 Kbps | Оригинал |  ENG |
Субтитры: Английские

Релиз:


[+] MI
General
Unique ID                   : 159307550545486267404661532874689353647 (0x77D984A88279BFAFD9AFF7856BCA17AF)
Complete name               : E:Video111Countdown.2019.BDREMUX.1080p.seleZen.mkv
Format                      : Matroska
Format version              : Version 4
File size                   : 19.1 GiB
Duration                    : 1 h 30 min
Overall bit rate mode       : Variable
Overall bit rate            : 30.2 Mb/s
Movie name                  : Countdown 2019 from селезень
Encoded date                : UTC 2020-01-14 07:35:36
Writing application         : mkvmerge v40.0.0 ('Old Town Road + Pony') 64-bit
Writing library             : libebml v1.3.9 + libmatroska v1.5.2

Video
ID                          : 1
Format                      : AVC
Format/Info                 : Advanced Video Codec
Format profile              : High@L4.1
Format settings             : CABAC / 2 Ref Frames
Format settings, CABAC      : Yes
Format settings, Reference  : 2 frames
Codec ID                    : V_MPEG4/ISO/AVC
Duration                    : 1 h 30 min
Bit rate mode               : Variable
Bit rate                    : 26.4 Mb/s
Width                       : 1 920 pixels
Height                      : 1 080 pixels
Display aspect ratio        : 16:9
Frame rate mode             : Constant
Frame rate                  : 23.976 (24000/1001) FPS
Color space                 : YUV
Chroma subsampling          : 4:2:0
Bit depth                   : 8 bits
Scan type                   : Progressive
Bits/(Pixel*Frame)          : 0.532
Stream size                 : 16.7 GiB (88%)
Language                    : English
Default                     : Yes
Forced                      : No

Audio #1
ID                          : 2
Format                      : AC-3
Format/Info                 : Audio Coding 3
Commercial name             : Dolby Digital
Codec ID                    : A_AC3
Duration                    : 1 h 30 min
Bit rate mode               : Constant
Bit rate                    : 384 kb/s
Channel(s)                  : 6 channels
Channel layout              : L R C LFE Ls Rs
Sampling rate               : 48.0 kHz
Frame rate                  : 31.250 FPS (1536 SPF)
Compression mode            : Lossy
Stream size                 : 249 MiB (1%)
Title                       : iTunes
Language                    : Russian
Service kind                : Complete Main
Default                     : Yes
Forced                      : Yes

Audio #2
ID                          : 3
Format                      : DTS XLL
Format/Info                 : Digital Theater Systems
Commercial name             : DTS-HD Master Audio
Codec ID                    : A_DTS
Duration                    : 1 h 30 min
Bit rate mode               : Variable
Bit rate                    : 3 363 kb/s
Channel(s)                  : 6 channels
Channel layout              : C L R Ls Rs LFE
Sampling rate               : 48.0 kHz
Frame rate                  : 93.750 FPS (512 SPF)
Bit depth                   : 24 bits
Compression mode            : Lossless
Stream size                 : 2.13 GiB (11%)
Title                       : Original
Language                    : English
Default                     : No
Forced                      : No

Text
ID                          : 4
Format                      : UTF-8
Codec ID                    : S_TEXT/UTF8
Codec ID/Info               : UTF-8 Plain Text
Duration                    : 1 h 23 min
Bit rate                    : 53 b/s
Count of elements           : 1096
Stream size                 : 32.7 KiB (0%)
Title                       : Full
Language                    : English
Default                     : No
Forced                      : No

Menu
00:00:00.000                : en:Глава 01
00:03:14.694                : en:Глава 02
00:08:07.028                : en:Глава 03
00:14:14.937                : en:Глава 04
00:18:02.999                : en:Глава 05
00:24:23.462                : en:Глава 06
00:31:47.989                : en:Глава 07
00:35:37.552                : en:Глава 08
00:39:21.943                : en:Глава 09
00:44:15.736                : en:Глава 10
00:47:26.177                : en:Глава 11
00:50:52.925                : en:Глава 12
00:55:49.304                : en:Глава 13
00:59:32.027                : en:Глава 14
01:07:01.059                : en:Глава 15
01:09:26.496                : en:Глава 16
01:15:02.456                : en:Глава 17
01:20:53.891                : en:Глава 18
01:22:54.261                : en:Глава 19
01:24:05.165                : en:Глава 20



Скриншоты:
[+] Всего файлов в раздаче - 1:
Countdown.2019.BDREMUX.1080p.seleZen.mkv19.13 GB

Похожие раздачи по запросу - обратный:
2020-01-15 U Обратный отсчет / Countdown (2019) BDRip от Portablius | iTunes 744.62 MB ↑ 48 ↓ 7
2020-01-14 U Обратный отсчет / Countdown (2019) BDRip 1080p от селезень | iTunes 7.61 GB ↑ 184 ↓ 248
2020-01-14 U Обратный отсчет / Countdown (2019) HDRip | iTunes 1.46 GB ↑ 118 ↓ 54
2019-11-20 U Эрих Мария Ремарк - Обратный путь (2019) MP3 304.50 MB ↑ 17 ↓ 4

Отзывы
Зарегистрируйтесь чтобы добавить комментарий.
Обратная связь
Copyleft ©