↑↓torrent.by
Поиск
Логин: Регистрация
Пароль: Восстановить пароль

Про Веру [01-02 из 08] (2019) WEB-DLRip от GeneralFilm

Скачать pro-veru-01-02-iz-08-2019-web-dlrip-ot-generalfilm.torrent
U Магнитная ссылка Размер: 1.09 GB Раздают: 40 Качают: 6 Добавлен: 2020-01-14 16:04:33
Про Веру [01-02 из 08] (2019) WEB-DLRip от GeneralFilm

Год выпуска: 2019
Жанр:  Драма
Выпущено: Россия, «Sreda Production Company»
Режиссер: Евгений Семенов
В ролях: Вера Панфилова, Даниил Страхов, Владислав Новицкий, Екатерина Дубакина, Олег Хамитов, Кристина Исайкина, Игорь Скляр, Денис Синявский, Артур Ваха, Александр Кудренко, Евгений Антропов, Ирина Горячева, Ольга Белинская, Юлия Силаева, Мария Антонова

О фильме: Одинокая девушка Вера живёт учёбой и заботой о шестнадцатилетнем брате - трудному подростку Вера старается заменить и мать, и отца, которых нет уже несколько лет. Как «подарок судьбы», в её жизнь врывается взрослый мужчина, успешный бизнесмен-строитель. Страсть и высокий романтический полёт оборачиваются для Веры трагедией: бизнесмен Максим проворачивает вокруг Веры масштабную финансовую аферу, после чего она становится главным фигурантом уголовного дела. В последний момент перед арестом, Вера успевает понять суть махинаций, и решается на опасный поступок — она крадёт у Максима пять миллионов долларов. В колонии, Вера замышляет месть — использовать украденные деньги, что бы уничтожить своего обидчика и его подельников, партнёров. Но когда она выходит на свободу, планы меняются, потому что неожиданно выясняется, что у Максима есть жена, трое детей: у его подельников тоже есть семьи, и просто «уничтожить» становится не так интересно...

Качество: WEB-DLRip
Видео: XviD build 73, 720x400 (16:9), 25.000 fps, ~ 1400 Kbps (~ 0.194 bit/pixel)
Аудио: 48.0 kHz, AC3, 2/0 ch, 192 kbps
Продолжительность: 2 х ~ 00:50:00
Перевод: Не требуется [Русский]
Cубтитры: нет

Релиз:
[+] MediaInfo
General
Complete name               : D:RazdachiPro.Veru.2019.WEB-DLRip.GeneralFilme02.Pro.Veru.avi
Format                      : AVI
Format/Info                 : Audio Video Interleave
File size                   : 557 MiB
Duration                    : 48 min 38 s
Overall bit rate            : 1 602 kb/s
Writing application         : VirtualDubMod 1.5.10.3 | www.virtualdub-fr.org || (build 2550/release)
Writing library             : VirtualDubMod build 2550/release

Video
ID                          : 0
Format                      : MPEG-4 Visual
Format profile              : Advanced Simple@L5
Format settings             : BVOP1 / Custom Matrix
Format settings, BVOP       : 1
Format settings, QPel       : No
Format settings, GMC        : No warppoints
Format settings, Matrix     : Custom
Codec ID                    : XVID
Codec ID/Hint               : XviD
Duration                    : 48 min 38 s
Bit rate                    : 1 400 kb/s
Width                       : 720 pixels
Height                      : 400 pixels
Display aspect ratio        : 16:9
Frame rate                  : 25.000 FPS
Color space                 : YUV
Chroma subsampling          : 4:2:0
Bit depth                   : 8 bits
Scan type                   : Progressive
Compression mode            : Lossy
Bits/(Pixel*Frame)          : 0.194
Stream size                 : 487 MiB (87%)
Writing library             : XviD 73

Audio
ID                          : 1
Format                      : AC-3
Format/Info                 : Audio Coding 3
Commercial name             : Dolby Digital
Codec ID                    : 2000
Duration                    : 48 min 38 s
Bit rate mode               : Constant
Bit rate                    : 192 kb/s
Channel(s)                  : 2 channels
Channel layout              : L R
Sampling rate               : 48.0 kHz
Frame rate                  : 31.250 FPS (1536 SPF)
Compression mode            : Lossy
Stream size                 : 66.8 MiB (12%)
Alignment                   : Split across interleaves
Interleave, duration        : 40  ms (1.00 video frame)
Interleave, preload duratio : 500  ms
Service kind                : Complete Main



Скриншоты:
[+] Всего файлов в раздаче - 2:
e02.Pro.Veru.avi557.26 MB
e01.Pro.Veru.avi557.98 MB

Показать еще раздачи по запросу веру:
2020-01-18 U Про Веру [01-08 из 08] (2019) WEB-DLRip от Files-x 5.07 GB ↑ 78 ↓ 46
2020-01-17 U Про Веру [01-08 из 08] (2017) HDTVRip-AVC от Files-x 5.97 GB ↑ 89 ↓ 93
2020-01-17 U Про Веру [01-08 из 08] (2019) HDTVRip 720p от GeneralFilm 10.06 GB ↑ 37 ↓ 75
2020-01-17 U Про Веру [01-08 из 08] (2019) HDTV 1080i от GeneralFilm 18.34 GB ↑ 35 ↓ 76
2020-01-17 U Про Веру [01-08 из 08] (2019) HDTVRip от GeneralFilm 4.90 GB ↑ 29 ↓ 56
2020-01-16 U Про Веру [01-06 из 08] (2017) HDTVRip-AVC от Files-x 4.48 GB ↑ 46 ↓ 47
2020-01-16 U Про Веру [01-06 из 08] (2019) HDTVRip 720p от GeneralFilm 7.55 GB ↑ 93 ↓ 105

Отзывы
Зарегистрируйтесь чтобы добавить комментарий.
Обратная связь
Copyleft ©