↑↓Torrent.by
Поиск
Логин: Регистрация
Пароль: Восстановить пароль

Про Веру [01-02 из 08] (2019) WEB-DLRip от Files-x

Скачать pro-veru-01-02-iz-08-2019-web-dlrip-ot-files-x.torrent
U Магнитная ссылка Размер: 1.29 GB Раздают: 37 Качают: 12 Добавлен: 2020-01-14 16:04:42
Про Веру [01-02 из 08] (2019) WEB-DLRip от Files-x

Название: Про Веру
Год выпуска: 2019
Жанр:  Драма
Режиссер: Евгений Семёнов
В ролях: Вера Панфилова, Даниил Страхов, Влад Новицкий, Екатерина Дубакина, Кристина Исайкина, Игорь Скляр, Денис Синявский, Артур Ваха, Александр Кудренко, Евгений Антропов

О фильме: Одинокая девушка Вера живёт учёбой и заботой о шестнадцатилетнем брате - трудному подростку Вера старается заменить и мать, и отца, которых нет уже несколько лет. Как «подарок судьбы», в её жизнь врывается взрослый мужчина, успешный бизнесмен-строитель. Страсть и высокий романтический полёт оборачиваются для Веры трагедией: бизнесмен Максим проворачивает вокруг Веры масштабную финансовую аферу, после чего она становится главным фигурантом уголовного дела. В последний момент перед арестом, Вера успевает понять суть махинаций, и решается на опасный поступок — она крадёт у Максима пять миллионов долларов. В колонии, Вера замышляет месть — использовать украденные деньги, что бы уничтожить своего обидчика и его подельников, партнёров. Но когда она выходит на свободу, планы меняются, потому что неожиданно выясняется, что у Максима есть жена, трое детей: у его подельников тоже есть семьи, и просто «уничтожить» становится не так интересно...

Выпущено: Россия
Студия: Sreda Production Company
Продолжительность: 2 x ~ 00:53:00
Перевод: Не требуется

Файл
Качество: WEB-DLRip
Видео: XviD, ~ 1600 Кбит/с, 720x400
Аудио: AC3, 2 ch, 192 Кбит/с

Релиз:


[+] MediaInfo
General
Complete name                    : H:fiiles xПро Веру.2019.WEB-DLRip.Files-x1. Про Веру.2019.WEB-DLRip.Files-x.avi
Format                           : AVI
Format/Info                      : Audio Video Interleave
File size                        : 695 MiB
Duration                         : 53mn 54s
Overall bit rate                 : 1 802 Kbps
Writing application              : VirtualDubMod 1.5.10.3 | www.virtualdub-fr.org || (build 2550/release)
Writing library                  : VirtualDubMod build 2550/release

Video
ID                               : 0
Format                           : MPEG-4 Visual
Format profile                   : Advanced Simple@L5
Format settings, BVOP            : 1
Format settings, QPel            : No
Format settings, GMC             : No warppoints
Format settings, Matrix          : Custom
Codec ID                         : XVID
Codec ID/Hint                    : XviD
Duration                         : 53mn 54s
Bit rate                         : 1 600 Kbps
Width                            : 720 pixels
Height                           : 400 pixels
Display aspect ratio             : 16:9
Frame rate                       : 25.000 fps
Color space                      : YUV
Chroma subsampling               : 4:2:0
Bit depth                        : 8 bits
Scan type                        : Progressive
Compression mode                 : Lossy
Bits/(Pixel*Frame)               : 0.222
Stream size                      : 617 MiB (89%)
Writing library                  : XviD 73

Audio
ID                               : 1
Format                           : AC-3
Format/Info                      : Audio Coding 3
Mode extension                   : CM (complete main)
Codec ID                         : 2000
Duration                         : 53mn 54s
Bit rate mode                    : Constant
Bit rate                         : 192 Kbps
Channel(s)                       : 2 channels
Channel positions                : Front: L R
Sampling rate                    : 48.0 KHz
Bit depth                        : 16 bits
Compression mode                 : Lossy
Stream size                      : 74.0 MiB (11%)
Alignment                        : Split accross interleaves
Interleave, duration             : 40 ms (1.00 video frame)
Interleave, preload duration     : 500 ms




Скриншоты:
[+] Всего файлов в раздаче - 2:
01. Про Веру.2019.WEB-DLRip.Files-x.avi694.72 MB
02. Про Веру.2019.WEB-DLRip.Files-x.avi626.71 MB

Показать еще раздачи по запросу веру:
Сегодня U Про Веру [01-08 из 08] (2017) HDTVRip-AVC от Files-x 5.97 GB ↑ 91 ↓ 89
Сегодня U Про Веру [01-08 из 08] (2019) HDTVRip 720p от GeneralFilm 10.06 GB ↑ 33 ↓ 71
Сегодня U Про Веру [01-08 из 08] (2019) HDTV 1080i от GeneralFilm 18.34 GB ↑ 36 ↓ 75
Сегодня U Про Веру [01-08 из 08] (2019) HDTVRip от GeneralFilm 4.90 GB ↑ 27 ↓ 51
Вчера U Про Веру [01-06 из 08] (2017) HDTVRip-AVC от Files-x 4.48 GB ↑ 46 ↓ 47
Вчера U Про Веру [01-06 из 08] (2019) HDTVRip 720p от GeneralFilm 7.55 GB ↑ 93 ↓ 105
Вчера U Про Веру [01-08 из 08] (2019) SATRip 4.69 GB ↑ 81 ↓ 244

Отзывы
Зарегистрируйтесь чтобы добавить комментарий.
Обратная связь
Copyleft ©