↑↓torrent.by
Поиск
Логин: Регистрация
Пароль: Восстановить пароль

Мандалорец / The Mandalorian [S01] (2019) WEB-DLRip-AVC | AlexFilm, LostFilm

Скачать mandalorec-the-mandalorian-s01-2019-web-dlrip-avc-alexfilm-lostfilm.torrent
U Магнитная ссылка Размер: 7.80 GB Раздают: 34 Качают: 42 Добавлен: 2020-01-14 16:05:03
Мандалорец / The Mandalorian [S01] (2019) WEB-DLRip-AVC | AlexFilm, LostFilm

Название: Мандалорец
Оригинальное название: The Mandalorian
Год выхода: 2019
Жанр: Фантастика, боевик, приключения
Режиссер: Дебора Чоу, Рик Фамуйива, Дэйв Филони
В ролях: Педро Паскаль, Кайл Пацек, Брендан Уэйн, Бернард Баллен, Александра Гилман, Луис Ричард Гомес, Джамал Антар, Тейт Флетчер, Тони Табоада, Омид Абтахи

О фильме:
Прошло пять лет после падения Империи, а диктатура Первого Ордена еще не набрала силу. Казалось бы, после победы Повстанцев в галактике должен был воцарить мир. Но некоторые ее обитатели никак не вписываются в привычный уклад, и одним из них становится одинокий охотник за головами, никогда не снимающий шлема с лица Мандалорец (Педро Паскаль). Немногословного бывшего воина мучают воспоминания о гибели родного поселения и своей благородной и некогда сильной нации. Но делать нечего — нужно как-то жить, и Мандалорец соглашается ловить всякое отребье, не особо разбираясь в том, как они провинились. Однажды к нему обращается загадочный клиент (Вернер Херцог) и просит отыскать очередную мишень, предоставляя весьма скудные сведения о цели. Мандалорцу положено знать лишь, что тому, кого он ищет, 50 лет. Каким же оказывается удивление Мандалорца, повидавшего в жизни много диковинных вещей, когда его 50-летняя мишень предстает перед ним куда более молодой на вид особью. Что это за существо, каково его происхождение и почему за ним остервенело охотится половина галактики — это нужно будет выяснить Мандалорцу. А тучи над ним начинают сгущаться: кажется, он, сам того не заметив, угодил в опасную игру, полную закулисных заговоров и вероломных предательств.

Страна: США
Выпущено: Lucasfilm Ltd., Walt Disney Studios
Продолжительность: ~00:40:00
Перевод: Профессиональный (многоголосый закадровый)

Файл
Формат: MKV
Качество: WEB-DLRip-AVC
Видео: 1024x428, 23.976 fps, MPEG-4 AVC, 2472 kb/s
Аудио 1: Russian: 48 kHz, AC3, 6 ch, ~384 kbps - AlexFilm
Аудио 2: Russian: 48 kHz, AC3, 6 ch, ~384 kbps - LostFilm
Аудио 3: English: 48 kHz, AC3, 6 ch, ~384 kbps
Субтитры: русские, английские


[+] MediaInfo
General
Unique ID                   : 200488105909683499627481669913144449212 (0x96D49ACB6C6048F5ADDFE9D466C3D8BC)
Complete name               : D:The.Mandalorian.S01.WEB-DLRip-AVCMandalorian.s01e01.mkv
Format                      : Matroska
Format version              : Version 4
File size                   : 1 005 MiB
Duration                    : 38 min 46 s
Overall bit rate            : 3 625 kb/s
Encoded date                : UTC 2020-01-13 14:13:09
Writing application         : mkvmerge v8.3.0 ('Over the Horizon') 32bit
Writing library             : libebml v1.3.1 + libmatroska v1.4.2

Video
ID                          : 1
Format                      : AVC
Format/Info                 : Advanced Video Codec
Format profile              : High@L4.1
Format settings             : CABAC / 8 Ref Frames
Format settings, CABAC      : Yes
Format settings, Reference  : 8 frames
Codec ID                    : V_MPEG4/ISO/AVC
Duration                    : 38 min 46 s
Bit rate                    : 2 472 kb/s
Width                       : 1 024 pixels
Height                      : 428 pixels
Display aspect ratio        : 2.40:1
Frame rate mode             : Constant
Frame rate                  : 23.976 (24000/1001) FPS
Color space                 : YUV
Chroma subsampling          : 4:2:0
Bit depth                   : 8 bits
Scan type                   : Progressive
Bits/(Pixel*Frame)          : 0.235
Stream size                 : 685 MiB (68%)
Writing library             : x264 core 146 r2538 121396c
Encoding settings           : cabac=1 / ref=8 / deblock=1:-2:-2 / analyse=0x3:0x113 / me=umh / subme=10 / psy=1 / psy_rd=1.00:0.20 / mixed_ref=1 / me_range=32 / chroma_me=1 / trellis=2 / 8x8dct=1 / cqm=0 / deadzone=21,11 / fast_pskip=0 / chroma_qp_offset=-3 / threads=6 / lookahead_threads=1 / sliced_threads=0 / nr=0 / decimate=0 / interlaced=0 / bluray_compat=0 / constrained_intra=0 / bframes=10 / b_pyramid=2 / b_adapt=2 / b_bias=0 / direct=3 / weightb=1 / open_gop=0 / weightp=2 / keyint=240 / keyint_min=23 / scenecut=40 / intra_refresh=0 / rc_lookahead=40 / rc=2pass / mbtree=0 / bitrate=2472 / ratetol=1.0 / qcomp=0.60 / qpmin=0 / qpmax=69 / qpstep=4 / cplxblur=20.0 / qblur=0.5 / vbv_maxrate=50000 / vbv_bufsize=62500 / nal_hrd=none / filler=0 / ip_ratio=1.40 / pb_ratio=1.30 / aq=1:1.00
Language                    : English
Default                     : Yes
Forced                      : No
Color range                 : Limited
Color primaries             : BT.709
Transfer characteristics    : BT.709
Matrix coefficients         : BT.709

Audio #1
ID                          : 2
Format                      : AC-3
Format/Info                 : Audio Coding 3
Commercial name             : Dolby Digital
Codec ID                    : A_AC3
Duration                    : 38 min 46 s
Bit rate mode               : Constant
Bit rate                    : 384 kb/s
Channel(s)                  : 6 channels
Channel layout              : L R C LFE Ls Rs
Sampling rate               : 48.0 kHz
Frame rate                  : 31.250 FPS (1536 SPF)
Bit depth                   : 16 bits
Compression mode            : Lossy
Stream size                 : 106 MiB (11%)
Title                       : AlexFilm
Language                    : Russian
Service kind                : Complete Main
Default                     : Yes
Forced                      : No

Audio #2
ID                          : 3
Format                      : AC-3
Format/Info                 : Audio Coding 3
Commercial name             : Dolby Digital
Codec ID                    : A_AC3
Duration                    : 38 min 46 s
Bit rate mode               : Constant
Bit rate                    : 384 kb/s
Channel(s)                  : 6 channels
Channel layout              : L R C LFE Ls Rs
Sampling rate               : 48.0 kHz
Frame rate                  : 31.250 FPS (1536 SPF)
Bit depth                   : 16 bits
Compression mode            : Lossy
Stream size                 : 106 MiB (11%)
Title                       : Lostfilm
Language                    : Russian
Service kind                : Complete Main
Default                     : No
Forced                      : No

Audio #3
ID                          : 4
Format                      : AC-3
Format/Info                 : Audio Coding 3
Commercial name             : Dolby Digital
Codec ID                    : A_AC3
Duration                    : 38 min 46 s
Bit rate mode               : Constant
Bit rate                    : 384 kb/s
Channel(s)                  : 6 channels
Channel layout              : L R C LFE Ls Rs
Sampling rate               : 48.0 kHz
Frame rate                  : 31.250 FPS (1536 SPF)
Bit depth                   : 16 bits
Compression mode            : Lossy
Stream size                 : 106 MiB (11%)
Language                    : English
Service kind                : Complete Main
Default                     : No
Forced                      : No

Text #1
ID                          : 5
Format                      : UTF-8
Codec ID                    : S_TEXT/UTF8
Codec ID/Info               : UTF-8 Plain Text
Duration                    : 35 min 37 s
Bit rate                    : 52 b/s
Count of elements           : 305
Stream size                 : 13.8 KiB (0%)
Language                    : Russian
Default                     : No
Forced                      : No

Text #2
ID                          : 6
Format                      : UTF-8
Codec ID                    : S_TEXT/UTF8
Codec ID/Info               : UTF-8 Plain Text
Duration                    : 35 min 34 s
Bit rate                    : 41 b/s
Count of elements           : 428
Stream size                 : 10.9 KiB (0%)
Language                    : English
Default                     : No
Forced                      : No



Скриншоты:
[+] Всего файлов в раздаче - 8:
Mandalorian.s01e01.mkv1,005.34 MB
Mandalorian.s01e02.mkv961.90 MB
Mandalorian.s01e03.mkv977.55 MB
Mandalorian.s01e04.mkv1,006.46 MB
Mandalorian.s01e05.mkv972.45 MB
Mandalorian.s01e06.mkv1,017.80 MB
Mandalorian.s01e07.mkv995.42 MB
Mandalorian.s01e08.mkv1.02 GB

Показать еще раздачи по запросу мандалорец:
2019-12-31 U Мандалорец / The Mandalorian [S01] (2019) WEB-DL 720p | LostFilm 12.06 GB ↑ 122 ↓ 102
2019-12-30 U Мандалорец / The Mandalorian [S01] (2019) WEB-DLRip от OlLanDGroup | Lostfilm 1К5.78 GB ↑ 110 ↓ 929
2019-12-30 U Мандалорец / The Mandalorian [S01] (2019) WEB-DLRip | LostFilm 4.18 GB ↑ 282 ↓ 92
2019-12-30 U Мандалорец / The Mandalorian [S01] (2019) WEB-DL 1080p | LostFilm 23.09 GB ↑ 199 ↓ 573
2019-12-29 U Мандалорец / The Mandalorian [S01] (2019) WEB-DLRip от Scarabey | AlexFilm 4.48 GB ↑ 119 ↓ 108
2019-12-28 U Мандалорец / The Mandalorian [S01] (2019) WEB-DL 1080p от Scarabey | AlexFilm 19.26 GB ↑ 107 ↓ 752
2019-11-30 U Мандалорец / The Mandalorian [01x01-04 из 08] (2019) WEB-DLRip | AlexFilm 2.04 GB ↑ 1273 ↓ 236

Отзывы
Зарегистрируйтесь чтобы добавить комментарий.
Обратная связь
Copyleft ©