↑↓torrent.by
Поиск
Логин: Регистрация
Пароль: Восстановить пароль

Портрет девушки в огне / Portrait de la jeune fille en feu (2019) WEB-DL 1080p | iTunes

Скачать portret-devushki-v-ogne-portrait-de-la-jeune-fille-en-feu-2019-web-dl-1080p-itunes.torrent
U Магнитная ссылка Размер: 4.40 GB Раздают: 167 Качают: 37 Добавлен: 2020-01-16 04:09:26
Портрет девушки в огне / Portrait de la jeune fille en feu (2019) WEB-DL 1080p | iTunes

Название: Портрет девушки в огне
Оригинальное название: Portrait de la jeune fille en feu
Год выпуска: 2019
Жанр: Драма
Режиссер: Селин Сьямма
В ролях: Ноэми Мерлан, Адель Энель, Луана Байрами, Валерия Голино, Кристель Барас, Арман Буланжер, Ги Деламарш, Клеман Буассу, Мишель Клеман, Сесиль Морел

О фильме: Бретань, 1770. Марианна, художница, приезжает в имение на побережье, чтобы написать портрет дочери его владелицы - Элоизы. Картина нужна, чтобы отправить жениху Элоизы в Милан. В знак протеста против замужества девушка отказывается позировать, и гостью представляют как компаньонку для прогулок. Проводя все больше времени вместе, девушки начинают чувствовать взаимное притяжение.

Страна: Франция
Студия: Lilies Films, Arte France Cinéma, Hold Up Films
Продолжительность: 02:01:18
Перевод: Дублированный | iTunes

Файл
Качество: WEB-DL 1080p
Контейнер: MKV
Видео: MPEG-4 AVC, 1912x1032, 4711 Kbps, 23.976 fps
Аудио: Russian: AC3, 6 ch, 48 kHz, 384 kbps - DUB, iTunes
Субтитры: Русские (Full)

Релиз:


[+] MediaInfo
General
Unique ID                                : 192130427296036395114517482908628625068 (0x908AF96CC18A557EB58868E9618D26AC)
Complete name                            : LGBT_PORTRAIT_2019_WEB-DL_1080p-BLUEBIRD.mkv
Format                                   : Matroska
Format version                           : Version 4 / Version 2
File size                                : 4.40 GiB
Duration                                 : 2 h 1 min
Overall bit rate                         : 5 199 kb/s
Encoded date                             : UTC 2020-01-15 19:21:08
Writing application                      : mkvmerge v6.9.1 ('Blue Panther') 32bit built on Apr 18 2014 18:15:44
Writing library                          : libebml v1.3.0 + libmatroska v1.4.1
Cover                                    : Yes
Attachments                              : cover.png

Video
ID                                       : 1
Format                                   : AVC
Format/Info                              : Advanced Video Codec
Format profile                           : High@L4
Format settings, CABAC                   : Yes
Format settings, RefFrames               : 4 frames
Codec ID                                 : V_MPEG4/ISO/AVC
Duration                                 : 2 h 1 min
Bit rate                                 : 4 711 kb/s
Width                                    : 1 912 pixels
Height                                   : 1 032 pixels
Display aspect ratio                     : 1.85:1
Frame rate mode                          : Constant
Frame rate                               : 23.976 (24000/1001) FPS
Color space                              : YUV
Chroma subsampling                       : 4:2:0
Bit depth                                : 8 bits
Scan type                                : Progressive
Bits/(Pixel*Frame)                       : 0.100
Stream size                              : 3.99 GiB (91%)
Language                                 : English
Default                                  : Yes
Forced                                   : No
Color range                              : Limited
Color primaries                          : BT.709
Transfer characteristics                 : BT.709
Matrix coefficients                      : BT.709

Audio
ID                                       : 2
Format                                   : AC-3
Format/Info                              : Audio Coding 3
Format settings, Endianness              : Big
Codec ID                                 : A_AC3
Duration                                 : 2 h 1 min
Bit rate mode                            : Constant
Bit rate                                 : 384 kb/s
Channel(s)                               : 6 channels
Channel positions                        : Front: L C R, Side: L R, LFE
Sampling rate                            : 48.0 kHz
Frame rate                               : 31.250 FPS (1536 SPF)
Bit depth                                : 16 bits
Compression mode                         : Lossy
Stream size                              : 333 MiB (7%)
Title                                    : [DUB] DD 5.1 @ 384 kbps (iTunes)
Language                                 : Russian
Service kind                             : Complete Main
Default                                  : Yes
Forced                                   : No

Text
ID                                       : 3
Format                                   : UTF-8
Codec ID                                 : S_TEXT/UTF8
Codec ID/Info                            : UTF-8 Plain Text
Title                                    : Full-length
Language                                 : Russian
Default                                  : No
Forced                                   : No

Menu
00:00:00.000                             : en:1
00:08:42.000                             : en:2
00:18:41.000                             : en:3
00:28:19.000                             : en:4
00:40:19.000                             : en:5
00:52:58.000                             : en:6
01:03:39.000                             : en:7
01:14:32.000                             : en:8
01:22:20.000                             : en:9
01:34:53.000                             : en:10
01:44:23.000                             : en:11
01:52:22.000                             : en:12
01:58:28.000                             : en:13



Скриншоты:
[+] Всего файлов в раздаче - 1:
LGBT_PORTRAIT_2019_WEB-DL_1080p-BLUEBIRD.mkv4.40 GB

Похожие раздачи по запросу - портрет:
2020-02-22 U Портрет девушки в огне / Portrait de la jeune fille en feu (2019) BDRip 1080p | iTunes 11.98 GB ↑ 102 ↓ 42
2020-02-22 U Портрет девушки в огне / Portrait de la jeune fille en feu (2019) BDRip от MegaPeer | iTunes 1.46 GB ↑ 103 ↓ 22
2016-11-25 U Портрет Дорианы Грей / Die Marquise von Sade / Doriana Grey (1976) BDRip | Uncut version | A 1.46 GB ↑ 278 ↓ 31

Отзывы
Зарегистрируйтесь чтобы добавить комментарий.
Обратная связь
Copyleft ©