↑↓torrent.by
Поиск
Логин: Регистрация
Пароль: Восстановить пароль

Хотите - верьте, хотите - нет... (1964) DVDRip от New-Team

Скачать hotite-verte-net-1964-dvdrip-ot-new-team.torrent
U Магнитная ссылка Размер: 741.16 MB Раздают: 26 Качают: 3 Добавлен: 2021-09-20 09:17:15
Хотите - верьте, хотите - нет... (1964) DVDRip от New-Team

Страна: СССР
Производство: Киностудия им. Горького (Ялтинский филиал)

Жанр:  комедия
Год выпуска: 1964
Продолжительность: 01:03:02

Перевод: Не требуется
Cубтитры: нет
Оригинальная аудиодорожка: русский

Режиссер: Слава Чаплин, Игорь Усов

В ролях:
Владимир Климентьев, Гренада Мнацаканова, Владимир Курков, Муза Крепкогорская, Анатолий Адоскин, Людмила Шагалова, Андрюша Загорский, Алеша Загорский, Игорь Капитонов, Зоя Фёдорова, Анатолий Королькевич, Александр Орлов, Пантелеймон Крымов, Василий Максимов, Анатолий Алексеев, Евгений Евстигнеев, Евгений Моргунов, Любовь Малиновская, Александр Матковский, Надежда Самсонова, Олег Каган, Ксения Козьмина, Аркадий Цинман...
Об актёрах подробней

Описание:
В один день родились три мальчика. Проходит время, и отцы начинают подозревать, что их сыновей случайно поменяли в родильном доме. В тайне от жен они начинают свое расследование…



[+] MediaInfo

Общее
Полное имя                               : Hotite-verte,hotite-net....1964.DVDRip_[New-team]_by_AVP_Studio.avi
Формат                                   : AVI
Формат/Информация                        : Audio Video Interleave
Размер файла                             : 741 Мбайт
Продолжительность                        : 1 ч. 3 м.
Общий поток                              : 1644 Кбит/сек
Программа кодирования                    : VirtualDubMod 1.5.10.3 | www.virtualdub-fr.org || (build 2550/release)
Библиотека кодирования                   : VirtualDubMod build 2550/release

Видео
Идентификатор                            : 0
Формат                                   : MPEG-4 Visual
Профиль формата                          : Advanced Simple@L5
Настройки формата                        : BVOP1 / Custom Matrix
Параметр BVOP формата                    : 1
Параметр QPel формата                    : Нет
Параметр GMC формата                     : Без точки перехода
Параметр матрицы формата                 : Выборочная
Идентификатор кодека                     : XVID
Идентификатор кодека/Подсказка           : XviD
Продолжительность                        : 1 ч. 3 м.
Битрейт                                  : 1442 Кбит/сек
Ширина                                   : 688 пикселей
Высота                                   : 512 пикселей
Соотношение сторон                       : 4:3
Частота кадров                           : 25,000 кадров/сек
Цветовое пространство                    : YUV
Субдискретизация насыщенности            : 4:2:0
Битовая глубина                          : 8 бит
Тип развёртки                            : Прогрессивная
Метод сжатия                             : С потерями
Бит/(Пиксели*Кадры)                      : 0.164
Размер потока                            : 650 Мбайт (88%)
Библиотека кодирования                   : XviD 73

Аудио
Идентификатор                            : 1
Формат                                   : AC-3
Формат/Информация                        : Audio Coding 3
Коммерческое название                    : Dolby Digital
Идентификатор кодека                     : 2000
Продолжительность                        : 1 ч. 3 м.
Вид битрейта                             : Постоянный
Битрейт                                  : 192 Кбит/сек
Каналы                                   : 2 канала
ChannelLayout                            : L R
Частота                                  : 48,0 КГц
Частота кадров                           : 31,250 кадров/сек (1536 SPF)
Метод сжатия                             : С потерями
Размер потока                            : 86,6 Мбайт (12%)
Выравнивание                             : Разделение по промежуткам
Продолжительность промежутка             : 40  мс. (1,00 видеокадр)
Время предзагрузки промежутка            : 500  мс



Скриншоты:
[+] Всего файлов в раздаче - 1:
Hotite-verte,hotite-net....1964.DVDRip_[New-team]_by_AVP_Studio.avi741.16 MB

Отзывы
Зарегистрируйтесь чтобы добавить комментарий.
Загрузите программу
  byTorrent
Обратная связь
Copyleft ©