↑↓torrent.by
Поиск
Логин: Регистрация
Пароль: Восстановить пароль

Сиротский Бруклин / Motherless Brooklyn (2019) WEBRip 720p | LakeFilms

Скачать sirotskiy-bruklin-motherless-brooklyn-2019-webrip-720p-lakefilms.torrent
U Магнитная ссылка Размер: 3.24 GB Раздают: 141 Качают: 66 Добавлен: 2020-01-18 14:33:18
Сиротский Бруклин / Motherless Brooklyn (2019) WEBRip 720p | LakeFilms

Название: Сиротский Бруклин
Оригинальное название: Motherless Brooklyn
Год выпуска: 2019
Жанр:  Драма, криминал, детектив
Выпущено: США, Class 5 Films, Odd Lot Entertainment, Warner Bros. Pictures
Режиссер: Эдвард Нортон
В ролях: Эдвард Нортон, Гугу Мбата-Роу, Алек Болдуин, Бобби Каннавейл, Уиллем Дефо, Брюс Уиллис, Итэн Сапли, Черри Джонс, Даллас Робертс, Джош Пэйс, Раду Спингель, Фишер Стивенс, Питер Грэй Льюис, Роберт Уиздом, Майкл Кеннет Уильямс, Айзиа Дж. Томпсон

О фильме: Лайонел Эссрог, одинокий частный детектив с синдромом Туретта, решает начать расследование убийства своего наставника и единственного друга Фрэнка Минны. У него есть лишь несколько зацепок и сила разума, одержимого поставленной целью, чтобы распутать клубок тщательно скрываемых тайн, которые сохраняют баланс сил в самом Нью-Йорке. Расследование заводит его в джазовые клубы Гарлема, где рекой течет джин, опасные трущобы Бруклина и даже в позолоченные залы политической элиты мегаполиса. Он бросает вызов гангстерам, коррупции и самому опасному человеку в городе, чтобы очистить имя своего друга и спасти женщину, которая может спасти его самого.

Техданные
Качество: WEBRip (720p)(исх. Motherless.Brooklyn.2019.1080p.WEBRip.DD5.1.x264-CM)
Видео: MPEG-4 AVC, ~ 2 900 kb/s, 1280x690, 23.976 FPS
Аудио: AC3, 2 ch, 320 Кбит/с
Продолжительность: 02:25:42
Перевод: Любительский двухголосый закадровый (LakeFilms)
Присутствует реклама!


[+] MI
General
Unique ID                                : 96202779164926785684562923523258663445 (0x485FFB374F23C96B6DFEC9FEE55B4215)
Complete name                            : E:Motherless.Brooklyn.2019.720p.LakeFilms.mkv
Format                                   : Matroska
Format version                           : Version 4 / Version 2
File size                                : 3.24 GiB
Duration                                 : 2 h 25 min
Overall bit rate                         : 3 180 kb/s
Writing application                      : XviD4PSP 8.0.96
Writing library                          : Lavf58.29.100
ErrorDetectionType                       : Per level 1
ENCODING_INFO                            : MATROSKA,WEBM > MKV Пользовательский

Video
ID                                       : 1
Format                                   : AVC
Format/Info                              : Advanced Video Codec
Format profile                           : High@L3.1
Format settings                          : CABAC / 4 Ref Frames
Format settings, CABAC                   : Yes
Format settings, RefFrames               : 4 frames
Codec ID                                 : V_MPEG4/ISO/AVC
Duration                                 : 2 h 25 min
Bit rate                                 : 2 900 kb/s
Width                                    : 1 280 pixels
Height                                   : 690 pixels
Display aspect ratio                     : 1.85:1
Frame rate mode                          : Constant
Frame rate                               : 23.976 (24000/1001) FPS
Color space                              : YUV
Chroma subsampling                       : 4:2:0
Bit depth                                : 8 bits
Scan type                                : Progressive
Bits/(Pixel*Frame)                       : 0.137
Stream size                              : 2.85 GiB (88%)
Writing library                          : x264 core 157 r2958 57baac4
Encoding settings                        : cabac=1 / ref=1 / deblock=1:-1:-1 / analyse=0x3:0x3 / me=hex / subme=1 / psy=1 / psy_rd=1.00:0.00 / mixed_ref=0 / me_range=16 / chroma_me=1 / trellis=0 / 8x8dct=1 / cqm=0 / deadzone=21,11 / fast_pskip=1 / chroma_qp_offset=0 / threads=5 / lookahead_threads=1 / sliced_threads=0 / nr=0 / decimate=1 / interlaced=0 / bluray_compat=0 / constrained_intra=0 / bframes=3 / b_pyramid=2 / b_adapt=1 / b_bias=0 / direct=1 / weightb=1 / open_gop=0 / weightp=1 / keyint=240 / keyint_min=24 / scenecut=40 / intra_refresh=0 / rc=abr / mbtree=0 / bitrate=2900 / ratetol=1.0 / qcomp=0.60 / qpmin=0 / qpmax=69 / qpstep=4 / ip_ratio=1.40 / pb_ratio=1.30 / aq=1:1.00
Default                                  : Yes
Forced                                   : No
ENCODING_INFO                            : H264 > X264 ABR 2900kbps Super Fast

Audio
ID                                       : 2
Format                                   : AC-3
Format/Info                              : Audio Coding 3
Codec ID                                 : A_AC3
Duration                                 : 2 h 25 min
Bit rate mode                            : Constant
Bit rate                                 : 320 kb/s
Channel(s)                               : 2 channels
Channel positions                        : Front: L R
Sampling rate                            : 48.0 kHz
Frame rate                               : 31.250 FPS (1536 SPF)
Bit depth                                : 16 bits
Compression mode                         : Lossy
Stream size                              : 333 MiB (10%)
Service kind                             : Complete Main
Default                                  : Yes
Forced                                   : No
ENCODING_INFO                            : AC3 > AC3 CBR 320kbps



Скриншоты:
[+] Всего файлов в раздаче - 1:
Motherless.Brooklyn.2019.720p.LakeFilms.mkv3.24 GB

Показать еще раздачи по запросу сиротский:
2020-03-12 U Сиротский Бруклин / Motherless Brooklyn (2019) BDRip от Twister & ExKinoRay | Лицензия 2.18 GB ↑ 35 ↓ 4
2020-03-11 U Сиротский Бруклин / Motherless Brooklyn (2019) BDRip 720p от селезень | Лицензия 8.41 GB ↑ 148 ↓ 80
2020-01-22 U Сиротский Бруклин / Motherless Brooklyn (2019) BDRip от Twister & ExKinoRay | iTunes 1.46 GB ↑ 208 ↓ 43
2020-01-19 U Сиротский Бруклин / Motherless Brooklyn (2019) BDRip 720p от селезень | iTunes 8.34 GB ↑ 325 ↓ 85
2020-01-19 U Сиротский Бруклин / Motherless Brooklyn (2019) BDRip 720p | iTunes 6.95 GB ↑ 1367 ↓ 706
2020-01-19 U Сиротский Бруклин / Motherless Brooklyn (2019) HDRip от MegaPeer | iTunes 1.46 GB ↑ 951 ↓ 168
2020-01-19 U Сиротский Бруклин / Motherless Brooklyn (2019) HDRip от MegaPeer | iTunes 2.18 GB ↑ 1011 ↓ 160

Отзывы
Зарегистрируйтесь чтобы добавить комментарий.
Обратная связь
Copyleft ©