↑↓torrent.by
Поиск
Логин: Регистрация
Пароль: Восстановить пароль

Красотки-головорезы / Mezzo Forte [OVA] (2000-2001) DVDRip-AVC от Neko FeliXXX | P | Лицензия

Скачать krasotki-golovorezy-mezzo-forte-ova-2000-2001-dvdrip-avc-ot-neko-felixxx-p-licenziya.torrent
U Магнитная ссылка Размер: 1.37 GB Раздают: 38 Качают: 18 Добавлен: 2020-01-20 05:35:30
Красотки-головорезы / Mezzo Forte [OVA] (2000-2001) DVDRip-AVC от Neko FeliXXX | P | Лицензия

Название: Красотки-головорезы
Оригинальное название: Mezzo Forte
Год выхода: 2007-2008
Жанр: боевые искусства, комедия, приключения, фантастика, эротика, рейпу
Режиссер: Умэцу Ясуоми
Автор оригинала: Умэцу Ясуоми
В ролях: Томоко Котани, Такуми Ямадзаки, Таитиро Хирокава, Сёдзо Идзука, Риэ Исидзука, Норио Вакамото, Синъитиро Мики

О фильме: Неотразимая юная Микура вместе со своими отчаянными напарниками охотно берётся за самые головокружительные преступные авантюры. Не раздумывая, она пускает в ход пистолет и свои крепкие кулаки. Разбой и убийства - её стихия. Микура и её друзья обожают опасность, но похищение крутого мафиози Момокити приводит их к настоящим проблемам. Его киллеры сделают всё, чтобы спасти босса, однако даже они бледнеют перед дочкой Момокити, капризной красоткой Момоми, убивающей просто ради удовольствия. Психопатка-убийца Момоми решает сама разобраться с похитителями, но в лице Микуры она встретит достойную противницу.

Возрастное ограничение: 18+
Цензура: Отсутствует [Сцены Секса не Вырезаны!]
Страна: Япония
Студия:  Green Bunny & Arms Studio
Продолжительность: 2 серии = ~00:59:59
Перевод: Профессиональный Многоголосый Закадровый MC Entertainment [Лицензия]

Файл
Кодек: XviD
Качество: DVDRip[Исходник: DVD5 From USA]
Формат видео: MKV / AVC
Видео:  960x720 (4:3), 23.976 fps, 2500 Кбит/сек (0.151 bit/pixel)
Аудио №1: AC3, 48.0 kHz, 6 ch, 384 kb/s, CBR   | MC Entertainment
Аудио №2: AC3, 48.0 kHz, 6 ch, 384 kb/s, CBR |  | Japan (Оригинал)
Субтитры: Русские



[+] MediaInfo
Общее
Уникальный идентификатор                 : 183694581443535443441147511117007653156 (0x8A324A1CD3EFADC697BE25A81ACD8924)
Полное имя                               : [Deadmau- RAWS] Mezzo.Forte.2000.2001.DVDRip-AVC.Uncensored.Version.RUS.JAP.Neko_FeliXXX & Deadmauvlad.mkv
Формат                                   : Matroska
Версия формата                           : Version 2
Размер файла                             : 1,37 Гбайт
Продолжительность                        : 59 м. 59 с.
Общий поток                              : 3269 Кбит/сек
Название фильма                          : [Deadmau- RAWS] Mezzo.Forte.2000.2001.DVDRip-AVC.RUS.JAP.Neko_FeliXXX & Deadmauvlad
Дата кодирования                         : UTC 2020-01-19 09:39:38
Программа кодирования                    : mkvmerge v7.8.0 ('River Man') 32bit built on Apr  3 2015 12:11:22
Библиотека кодирования                   : libebml v1.3.1 + libmatroska v1.4.2

Видео
Идентификатор                            : 1
Формат                                   : AVC
Формат/Информация                        : Advanced Video Codec
Профиль формата                          : High@L4.1
Настройки формата                        : CABAC / 12 Ref Frames
Параметр CABAC формата                   : Да
Параметр RefFrames формата               : 12 кадров
Идентификатор кодека                     : V_MPEG4/ISO/AVC
Продолжительность                        : 59 м. 59 с.
Битрейт                                  : 2500 Кбит/сек
Ширина                                   : 960 пикселей
Высота                                   : 720 пикселей
Соотношение сторон                       : 4:3
Режим частоты кадров                     : Постоянный
Частота кадров                           : 23,976 (24000/1001) кадра/сек
Цветовое пространство                    : YUV
Субдискретизация насыщенности            : 4:2:0
Битовая глубина                          : 8 бит
Тип развёртки                            : Прогрессивная
Бит/(Пиксели*Кадры)                      : 0.151
Размер потока                            : 1,02 Гбайт (75%)
Заголовок                                : Encoder by Neko_FeliXXX & Deadmauvlad
Библиотека кодирования                   : x264 core 159 r2991 1771b55
Настройки программы                      : cabac=1 / ref=12 / deblock=1:-1:-1 / analyse=0x3:0x113 / me=umh / subme=10 / psy=1 / psy_rd=1.25:0.75 / mixed_ref=0 / me_range=48 / chroma_me=1 / trellis=2 / 8x8dct=1 / cqm=0 / deadzone=21,11 / fast_pskip=1 / chroma_qp_offset=-4 / threads=18 / lookahead_threads=4 / sliced_threads=0 / nr=0 / decimate=1 / interlaced=0 / bluray_compat=0 / constrained_intra=0 / bframes=16 / b_pyramid=2 / b_adapt=2 / b_bias=0 / direct=1 / weightb=1 / open_gop=0 / weightp=2 / keyint=240 / keyint_min=24 / scenecut=40 / intra_refresh=0 / rc=2pass / mbtree=0 / bitrate=2500 / ratetol=1.0 / qcomp=0.60 / qpmin=8 / qpmax=69 / qpstep=4 / cplxblur=20.0 / qblur=0.5 / ip_ratio=1.40 / pb_ratio=1.40 / aq=1:1.50
Язык                                     : Polish
Default                                  : Да
Forced                                   : Нет
Цветовой диапазон                        : Limited
Основные цвета                           : BT.709
Характеристики трансфера                 : BT.709
Коэффициенты матрицы                     : BT.709

Аудио #1
Идентификатор                            : 2
Формат                                   : AC-3
Формат/Информация                        : Audio Coding 3
Коммерческое название                    : Dolby Digital
Идентификатор кодека                     : A_AC3
Продолжительность                        : 59 м. 59 с.
Вид битрейта                             : Постоянный
Битрейт                                  : 384 Кбит/сек
Каналы                                   : 6 каналов
ChannelLayout                            : L R C LFE Ls Rs
Частота                                  : 48,0 КГц
Частота кадров                           : 31,250 кадров/сек (1536 SPF)
Метод сжатия                             : С потерями
Размер потока                            : 165 Мбайт (12%)
Язык                                     : Russian
Default                                  : Нет
Forced                                   : Нет

Аудио #2
Идентификатор                            : 3
Формат                                   : AC-3
Формат/Информация                        : Audio Coding 3
Коммерческое название                    : Dolby Digital
Идентификатор кодека                     : A_AC3
Продолжительность                        : 59 м. 59 с.
Вид битрейта                             : Постоянный
Битрейт                                  : 384 Кбит/сек
Каналы                                   : 6 каналов
ChannelLayout                            : L R C LFE Ls Rs
Частота                                  : 48,0 КГц
Частота кадров                           : 31,250 кадров/сек (1536 SPF)
Метод сжатия                             : С потерями
Размер потока                            : 165 Мбайт (12%)
Язык                                     : Japanese
Default                                  : Нет
Forced                                   : Нет

Текст
Идентификатор                            : 4
Формат                                   : UTF-8
Идентификатор кодека                     : S_TEXT/UTF8
Идентификатор кодека/Информация          : UTF-8 Plain Text
Язык                                     : Russian
Default                                  : Нет
Forced                                   : Нет



[+] X264 Log
...last pass...
x264 [info]: frame I:708   Avg QP:19.91  size: 67762
x264 [info]: frame P:17265 Avg QP:21.02  size: 28499
x264 [info]: frame B:68336 Avg QP:21.35  size:  8550
x264 [info]: consecutive B-frames:  2.6%  2.9%  5.4% 14.8% 17.2% 17.9% 12.5% 15.7%  4.1%  2.9%  1.3%  1.1%  0.5%  0.4%  0.2%  0.3%  0.2%
x264 [info]: mb I  I16..4:  5.8% 75.5% 18.7%
x264 [info]: mb P  I16..4:  1.5% 21.3%  2.5%  P16..4: 48.5%  8.8%  5.1%  0.0%  0.0%    skip:12.2%
x264 [info]: mb B  I16..4:  0.1%  0.9%  0.1%  B16..8: 36.6%  4.1%  1.4%  direct:10.4%  skip:46.5%  L0:47.8% L1:45.4% BI: 6.8%
x264 [info]: 8x8 transform intra:83.0% inter:50.0%
x264 [info]: coded y,uvDC,uvAC intra: 89.8% 89.6% 67.9% inter: 21.4% 30.5% 6.2%
x264 [info]: i16 v,h,dc,p: 29% 24% 10% 37%
x264 [info]: i8 v,h,dc,ddl,ddr,vr,hd,vl,hu:  9% 10% 13%  9% 11% 10% 12% 11% 15%
x264 [info]: i4 v,h,dc,ddl,ddr,vr,hd,vl,hu: 10% 11%  2% 10% 15% 13% 15% 10% 14%
x264 [info]: i8c dc,h,v,p: 39% 26% 17% 18%
x264 [info]: Weighted P-Frames: Y:11.2% UV:7.9%
x264 [info]: ref P L0: 36.9%  6.2% 19.1%  6.8%  7.3%  4.7%  5.3%  2.9%  3.2%  2.5%  2.7%  2.2%  0.2%  0.0%
x264 [info]: ref B L0: 59.5% 14.3%  7.5%  4.5%  3.4%  3.0%  2.6%  1.9%  1.6%  1.2%  0.5%
x264 [info]: ref B L1: 91.9%  8.1%
x264 [info]: kb/s:2498.61

x264 [total]: encoded 86309 frames, 18.40 fps, 2498.61 kb/s



[+] Оригинал VS Рип
 

 

 



Скриншоты:
[+] Всего файлов в раздаче - 1:
[Deadmau- RAWS] Mezzo.Forte.2000.2001.DVDRip-AVC.Uncensored.Version.RUS.JAP.Neko_FeliXXX & Deadmauvlad.mkv1.37 GB

Отзывы
Зарегистрируйтесь чтобы добавить комментарий.
Обратная связь
Copyleft ©