↑↓torrent.by
Поиск
Логин: Регистрация
Пароль: Восстановить пароль

Кэндимен / Candyman (2021) WEB-DL 1080p | Pazl Voice

Скачать kendimen-candyman-2021-web-dl-1080p-pazl-voice.torrent
U Магнитная ссылка Размер: 5.03 GB Раздают: 49 Качают: 110 Добавлен: 2021-09-20 11:03:26
Кэндимен / Candyman (2021) WEB-DL 1080p | Pazl Voice

Год выпуска: 2021
Выпущено: Канада, США, Universal Pictures, Metro-Goldwyn-Mayer (MGM). BRON Studios
Жанр: Ужасы, триллер
Режиссер: Ниа ДаКоста
В ролях: Яхья Абдул-Матин II, Тейона Паррис, Нэйтан Стюарт-Джарретт, Колман Доминго, Кайл Каминский, Ванесса Уильямс, Ребекка Спенс, Карл Клемонс-Хопкинс, Брайан Кинг, Мириам Мосс

О фильме: В поисках идей молодой художник из Чикаго Энтони Маккой решает изучить историю района, куда он недавно переехал вместе со своей подругой. Исследование знакомит его с пожилым местным жителем, который рассказывает парню о печально известном маньяке Кэндимене, убивающего тех, кто перед зеркалом пять раз произнесёт его имя. Вдохновившись этой историей, Энтони создаёт экспонат для выставки, где после закрытия происходит двойное убийство.

Продолжительность: 01:31:01
Перевод: любительский двухголосый (Pazl Voice)
Субтитры: Английские

Качество: WEB-DL 1080p |AMZN
Видео: MPEG-4 AVC, 6817 Кбит/сек, 1920x800
Аудио #1: AC3, 6 ch, 448 Кбит/с | RUS | Tnx.KinoPub
Аудио #2: E-AC3, 6 ch, 640 Кбит/с | ENG |


[+] M.info
Общее
Уникальный идентификатор                 : 117016783353219553751383962558152055665 (0x58089CDA45ED150F11E7AB0DE6B01B71)
Полное имя                               : E:TorrentsCandyman.2021.1080p.AMZN_JNS82.mkv
Формат                                   : Matroska
Версия формата                           : Version 4
Размер файла                             : 5,03 Гбайт
Продолжительность                        : 1 ч. 31 м.
Общий поток                              : 7 907 Кбит/сек
Название фильма                          : Candyman.2021.1080p.AMZN_JNS82
Дата кодирования                         : UTC 2021-09-20 05:20:37
Программа кодирования                    : mkvmerge v59.0.0 ('Shining Star') 64-bit
Библиотека кодирования                   : libebml v1.4.2 + libmatroska v1.6.4

Видео
Идентификатор                            : 1
Формат                                   : AVC
Формат/Информация                        : Advanced Video Codec
Профиль формата                          : High@L4
Настройки формата                        : CABAC / 4 Ref Frames
Параметр CABAC формата                   : Да
Параметр RefFrames формата               : 4 кадра
Идентификатор кодека                     : V_MPEG4/ISO/AVC
Продолжительность                        : 1 ч. 31 м.
Вид битрейта                             : Постоянный
Битрейт                                  : 6 817 Кбит/сек
Номинальный битрейт                      : 10 000 Кбит/сек
Ширина                                   : 1 920 пикселей
Высота                                   : 800 пикселей
Соотношение сторон                       : 2,40:1
Режим частоты кадров                     : Постоянный
Частота кадров                           : 23,976 (24000/1001) кадра/сек
Цветовое пространство                    : YUV
Субдискретизация насыщенности            : 4:2:0
Битовая глубина                          : 8 бит
Тип развёртки                            : Прогрессивная
Бит/(Пиксели*Кадры)                      : 0.185
Размер потока                            : 4,33 Гбайт (86%)
Default                                  : Да
Forced                                   : Нет
Цветовой диапазон                        : Limited
Основные цвета                           : BT.709
Характеристики трансфера                 : BT.709
Коэффициенты матрицы                     : BT.709

Аудио #1
Идентификатор                            : 2
Формат                                   : AC-3
Формат/Информация                        : Audio Coding 3
Коммерческое название                    : Dolby Digital
Идентификатор кодека                     : A_AC3
Продолжительность                        : 1 ч. 31 м.
Вид битрейта                             : Постоянный
Битрейт                                  : 448 Кбит/сек
Каналы                                   : 6 каналов
Channel layout                           : L R C LFE Ls Rs
Частота                                  : 48,0 КГц
Частота кадров                           : 31,250 кадров/сек (1536 SPF)
Метод сжатия                             : С потерями
Размер потока                            : 292 Мбайт (6%)
Заголовок                                : [DVO] Pazl Voice | KinoPub
Язык                                     : Russian
Service kind                             : Complete Main
Default                                  : Да
Forced                                   : Нет

Аудио #2
Идентификатор                            : 3
Формат                                   : E-AC-3
Формат/Информация                        : Enhanced AC-3
Коммерческое название                    : Dolby Digital Plus
Идентификатор кодека                     : A_EAC3
Продолжительность                        : 1 ч. 31 м.
Вид битрейта                             : Постоянный
Битрейт                                  : 640 Кбит/сек
Каналы                                   : 6 каналов
Channel layout                           : L R C LFE Ls Rs
Частота                                  : 48,0 КГц
Частота кадров                           : 31,250 кадров/сек (1536 SPF)
Метод сжатия                             : С потерями
Размер потока                            : 417 Мбайт (8%)
Язык                                     : English
Service kind                             : Complete Main
Default                                  : Нет
Forced                                   : Нет

Текст
Идентификатор                            : 4
Формат                                   : UTF-8
Идентификатор кодека                     : S_TEXT/UTF8
Идентификатор кодека/Информация          : UTF-8 Plain Text
Продолжительность                        : 1 ч. 26 м.
Битрейт                                  : 56 бит/сек
Count of elements                        : 1255
Размер потока                            : 35,8 Кбайт (0%)
Заголовок                                : English [SDH]
Язык                                     : English
Default                                  : Нет
Forced                                   : Нет



Скриншоты:
[+] Всего файлов в раздаче - 1:
Candyman.2021.1080p.AMZN_JNS82.mkv5.03 GB

Похожие раздачи по запросу - кэндимен:
2021-09-20 U Кэндимен / Candyman (2021) WEB-DLRip от Portablius | Pazl Voice 755.65 MB ↑ 71 ↓ 24
2021-09-20 U Кэндимен / Candyman (2021) WEB-DLRip 720p | Pazl Voice 2.12 GB ↑ 61 ↓ 32
2021-09-20 U Кэндимен / Candyman (2021) WEB-DLRip | Pazl Voice 1.46 GB ↑ 104 ↓ 59
2021-09-20 U Кэндимен / Candyman (2021) WEB-DLRip-AVC | Pazl Voice 768.50 MB ↑ 26 ↓ 18
2021-09-20 U Кэндимен / Candyman (2021) WEB-DLRip 720p | Pazl Voice 1.65 GB ↑ 71 ↓ 48

Отзывы
Зарегистрируйтесь чтобы добавить комментарий.
Загрузите программу
  byTorrent
Обратная связь
Copyleft ©