↑↓torrent.by
Поиск
Логин: Регистрация
Пароль: Восстановить пароль

Звездный путь: Нижние палубы / Star Trek: Lower Decks [02х01-06 из 10] (2021) WEB-DL 720p | LostFilm

Скачать zvezdnyy-put-nizhnie-paluby-star-trek-lower-decks-02h01-06-iz-10-2021-web-dl-720p-lostfilm.torrent
U Магнитная ссылка Размер: 3.72 GB Раздают: 17 Качают: 12 Добавлен: 2021-09-20 17:09:29
Звездный путь: Нижние палубы / Star Trek: Lower Decks [02х01-06 из 10] (2021) WEB-DL 720p | LostFilm

Название: Звёздный путь: Нижние палубы
Оригинальное название: Star Trek: Lower Decks
Год выхода: 2021
Жанр: мультфильм, фантастика, боевик, комедия, приключения
Режиссер: Джуно Джон Ли, Бэрри Дж. Келли
В ролях: Тоуни Ньюсом, Джек Куэйд, Ноэль Кристи Уэллс, джин КордероДоун Льюис, Джерри О’Коннелл, Фред Таташиор, Джиллиан Вигмэн, Джессика МакКенна, Фил ЛаМарр и другие.
О фильме:
Пока команды «Энтерпрайза» и «Дискавери» вершат судьбы вселенной, где-то на нижней палубе ничем не примечательного корабля «Серритос» своим ходом идет жизнь четырех младших офицеров. Энсин Маринер (Тоуни Ньюсом) — крутая девчонка, которая свободно владеет несколькими инопланетными языками, орудует клингонским мечом, разбирается во флоре и фауне многих миров, но нарушение устава в недавнем прошлом прервало ее карьерный рост. Коллега Маринер, энсин Боймлер (Джек Куэйд), напротив, во всем подчиняется правилам, боится отступить от них хоть на миллиметр и мечтает когда-нибудь управлять кораблем на капитанском мостике. Компанию в незамысловатых приключениях им составляют энсин Резерфорд (Юджин Кордеро) с вечно сбоящим кибернетическим имплантом и энсин Тенди (Ноэль Кристи Уэллс), восторженный новичок Звездного флота. Вместе герои выполняют грязную, но необходимую работу, которая иногда приводит к непредсказуемым событиям.

Страна: США
Студия: 219 Productions, CBS Eye Animation Productions, Roddenberry Entertainment, Secret Hideout
Продолжительность: ~ 00:25:00 серия
Перевод: Профессиональный (многоголосый закадровый) | LostFilm

Файл
Кодек: MPEG-4 AVC/x.264
Качество: WEBRip 720p (Амазон)
Видео: 1280x720 (16:9), 24.000 fps, ~2560 kbps
Звук:
Аудио # 1: AC3, 48 kHz, 6 ch, 640 kbps | LostFilm
Аудио # 2: E-AC3, 48 kHz, 6 ch, 640 kbps | английский
Субтитры: английские
Реклама: отсутствует

Семпл


[+] Релиз:

Релиз: Grandfather61 (Skyn s61)
Дорожка 1 получена наложением выделенных голосов от «LostFilm» на центр оригинального AC3.
Монтаж, работа со звуком: Grandfather61 (Skyn s61)



[+] MediaInfo:

Общее
Уникальный идентификатор                 : 222903043916839012687448265359349936214 (0xA7B19090031952DF45C37F9451067056)
Полное имя                               : G:Star.Trek.Lower.Decks.S02.720p.WEBRip.DD5.1.LostFilmStar.Trek.Lower.Decks.S02E01.720p.WEBRip.DD5.1.LostFilm.mkv
Формат                                   : Matroska
Версия формата                           : Version 4
Размер файла                             : 683 Мбайт
Продолжительность                        : 24 м. 50 с.
Общий поток                              : 3 842 Кбит/сек
Дата кодирования                         : UTC 2021-08-22 06:31:19
Программа кодирования                    : mkvmerge v59.0.0 ('Shining Star') 64-bit
Библиотека кодирования                   : libebml v1.4.2 + libmatroska v1.6.4

Видео
Идентификатор                            : 1
Формат                                   : AVC
Формат/Информация                        : Advanced Video Codec
Профиль формата                          : High@L3.1
Настройки формата                        : CABAC / 4 Ref Frames
Параметр CABAC формата                   : Да
Параметр RefFrames формата               : 4 кадра
Идентификатор кодека                     : V_MPEG4/ISO/AVC
Продолжительность                        : 24 м. 50 с.
Вид битрейта                             : Постоянный
Битрейт                                  : 2 560 Кбит/сек
Номинальный битрейт                      : 4 000 Кбит/сек
Ширина                                   : 1 280 пикселей
Высота                                   : 720 пикселей
Соотношение сторон                       : 16:9
Режим частоты кадров                     : Постоянный
Частота кадров                           : 24,000 кадра/сек
Цветовое пространство                    : YUV
Субдискретизация насыщенности            : 4:2:0
Битовая глубина                          : 8 бит
Тип развёртки                            : Прогрессивная
Бит/(Пиксели*Кадры)                      : 0.116
Размер потока                            : 455 Мбайт (67%)
Язык                                     : English
Default                                  : Да
Forced                                   : Нет
Цветовой диапазон                        : Limited
Основные цвета                           : BT.709
Характеристики трансфера                 : BT.709
Коэффициенты матрицы                     : BT.709

Аудио #1
Идентификатор                            : 2
Формат                                   : AC-3
Формат/Информация                        : Audio Coding 3
Коммерческое название                    : Dolby Digital
Идентификатор кодека                     : A_AC3
Продолжительность                        : 24 м. 50 с.
Вид битрейта                             : Постоянный
Битрейт                                  : 640 Кбит/сек
Каналы                                   : 6 каналов
Channel layout                           : L R C LFE Ls Rs
Частота                                  : 48,0 КГц
Частота кадров                           : 31,250 кадров/сек (1536 SPF)
Метод сжатия                             : С потерями
Размер потока                            : 114 Мбайт (17%)
Заголовок                                : LostFilm
Язык                                     : Russian
Service kind                             : Complete Main
Default                                  : Да
Forced                                   : Нет

Аудио #2
Идентификатор                            : 3
Формат                                   : E-AC-3
Формат/Информация                        : Enhanced AC-3
Коммерческое название                    : Dolby Digital Plus
Идентификатор кодека                     : A_EAC3
Продолжительность                        : 24 м. 50 с.
Вид битрейта                             : Постоянный
Битрейт                                  : 640 Кбит/сек
Каналы                                   : 6 каналов
Channel layout                           : L R C LFE Ls Rs
Частота                                  : 48,0 КГц
Частота кадров                           : 31,250 кадров/сек (1536 SPF)
Метод сжатия                             : С потерями
Размер потока                            : 114 Мбайт (17%)
Язык                                     : English
Service kind                             : Complete Main
Default                                  : Нет
Forced                                   : Нет

Текст #1
Идентификатор                            : 4
Формат                                   : UTF-8
Идентификатор кодека                     : S_TEXT/UTF8
Идентификатор кодека/Информация          : UTF-8 Plain Text
Продолжительность                        : 24 м. 12 с.
Битрейт                                  : 101 бит/сек
Count of elements                        : 532
Размер потока                            : 18,0 Кбайт (0%)
Язык                                     : English
Default                                  : Нет
Forced                                   : Нет

Текст #2
Идентификатор                            : 5
Формат                                   : UTF-8
Идентификатор кодека                     : S_TEXT/UTF8
Идентификатор кодека/Информация          : UTF-8 Plain Text
Продолжительность                        : 24 м. 30 с.
Битрейт                                  : 110 бит/сек
Count of elements                        : 600
Размер потока                            : 19,8 Кбайт (0%)
Заголовок                                : SDH
Язык                                     : English
Default                                  : Нет
Forced                                   : Нет




Скриншоты:
[+] Всего файлов в раздаче - 6:
Star.Trek.Lower.Decks.S02E01.720p.WEBRip.DD5.1.LostFilm.mkv682.64 MB
Star.Trek.Lower.Decks.S02E02.720p.WEBRip.DD5.1.LostFilm.mkv644.42 MB
Star.Trek.Lower.Decks.S02E03.720p.WEBRip.DD5.1.LostFilm.mkv597.18 MB
Star.Trek.Lower.Decks.S02E04.720p.WEBRip.DD5.1.LostFilm.mkv635.04 MB
Star.Trek.Lower.Decks.S02E05.720p.WEBRip.DD5.1.LostFilm.mkv635.93 MB
Star.Trek.Lower.Decks.S02E06.720p.WEBRip.DD5.1.LostFilm.mkv614.80 MB

Похожие раздачи по запросу - звездный:
2021-10-11 U Звездный путь: Нижние палубы / Star Trek: Lower Decks [02х01-09 из 10] (2021) WEB-DL 720p | LostFilm 5.53 GB ↑ 23 ↓ 5
2021-06-02 U Звездный рубеж / Cosmic Sin (2021) BDRip 1080p | D, A 8.71 GB ↑ 272 ↓ 235
2021-06-02 U Звездный рубеж / Cosmic Sin (2021) BDRip от MegaPeer | iTunes 1.42 GB ↑ 516 ↓ 129

Отзывы
Зарегистрируйтесь чтобы добавить комментарий.
Загрузите программу
  byTorrent
Обратная связь
Copyleft ©