↑↓torrent.by
Поиск
Логин: Регистрация
Пароль: Восстановить пароль

Идеальный пациент / The Perfect Patient (2019) WEB-DLRip-AVC от ExKinoRay | iTunes

Скачать idealnyy-pacient-the-perfect-patient-2019-web-dlrip-avc-ot-exkinoray-itunes.torrent
U Магнитная ссылка Размер: 1.98 GB Раздают: 306 Качают: 49 Добавлен: 2020-01-28 08:08:02
Идеальный пациент / The Perfect Patient (2019) WEB-DLRip-AVC от ExKinoRay | iTunes

Информация о фильме
Название: Идеальный пациент
Оригинальное название: The Perfect Patient
Год выпуска: 2019
Жанр:  Триллер
Режиссер: Микаэль Хофстрём
В ролях: Йонас Карлссон, Давид Денсик, Альба Аугуст, Сюзанн Рейтер, Линда Ульвеус, Кристофер Вагелин, Това Магнуссон-Норлинг, Даг Малмберг, Магнус Роосманн, Бьёрн Бенгтссон

Описание:  Его изощренному уму позавидовал бы сам Ганнибал Лектер. Десятки жертв по всей стране и никаких улик. Единственный свидетель - он сам, сдавшийся на милость правосудия. Что это, муки совести или очередной ход в его чудовищной игре? В клетку со зверем заходит журналист.

Страна: Швеция
Студия: Brain Academy, Film i Väst, Nordisk Film
Продолжительность: 02:11:25
Перевод: Дублированный | iTunes

Формат: MKV
Качество: WEB-DLRip-AVC
Видео: MPEG-4 AVC, 1024x384 (2.667:1), 24.000 fps, 1780 Kbps, 0.189 bit/pixel
Аудио : 48 kHz, AC3, 5.1, 384 Kbps | RUS |

Релиз:

Автор релиза:


[+] ОтчетМедиаИнфо

General
Unique ID                                : 229858519054976034210490875774097448363 (0xACED23F6A1AADC26BA15FA1BD1345DAB)
Complete name                            : F:The.Perfect.Patient.2019.WEB-DL.ExKinoRay.mkv
Format                                   : Matroska
Format version                           : Version 2
File size                                : 1.98 GiB
Duration                                 : 2 h 11 min
Overall bit rate                         : 2 162 kb/s
Movie name                               : The Perfect Patient 2019 from ExKinoRay
Encoded date                             : UTC 2020-01-28 03:15:42
Writing application                      : mkvmerge v5.6.0 ('Kenya Kane') built on May 27 2012 16:44:04
Writing library                          : libebml v1.2.3 + libmatroska v1.3.0

Video
ID                                       : 1
Format                                   : AVC
Format/Info                              : Advanced Video Codec
Format profile                           : High@L4.1
Format settings, CABAC                   : Yes
Format settings, ReFrames                : 10 frames
Codec ID                                 : V_MPEG4/ISO/AVC
Duration                                 : 2 h 11 min
Bit rate                                 : 1 780 kb/s
Width                                    : 1 024 pixels
Height                                   : 384 pixels
Display aspect ratio                     : 2.667
Frame rate mode                          : Constant
Frame rate                               : 24.000 FPS
Color space                              : YUV
Chroma subsampling                       : 4:2:0
Bit depth                                : 8 bits
Scan type                                : Progressive
Bits/(Pixel*Frame)                       : 0.189
Stream size                              : 1.59 GiB (80%)
Title                                    : Enigma
Writing library                          : x264 core 152 r2851 ba24899
Encoding settings                        : cabac=1 / ref=10 / deblock=1:-2:-2 / analyse=0x3:0x113 / me=umh / subme=10 / psy=1 / psy_rd=1.03:0.08 / mixed_ref=1 / me_range=32 / chroma_me=1 / trellis=2 / 8x8dct=1 / cqm=0 / deadzone=21,11 / fast_pskip=0 / chroma_qp_offset=-3 / threads=12 / lookahead_threads=3 / sliced_threads=0 / nr=0 / decimate=0 / interlaced=0 / bluray_compat=0 / constrained_intra=0 / bframes=10 / b_pyramid=2 / b_adapt=2 / b_bias=0 / direct=3 / weightb=1 / open_gop=0 / weightp=2 / keyint=240 / keyint_min=24 / scenecut=40 / intra_refresh=0 / rc=2pass / mbtree=0 / bitrate=1780 / ratetol=1.0 / qcomp=0.60 / qpmin=0 / qpmax=51 / qpstep=4 / cplxblur=20.0 / qblur=0.5 / ip_ratio=1.30 / pb_ratio=1.20 / aq=1:1.00
Language                                 : English
Default                                  : Yes
Forced                                   : No
Color range                              : Limited
Color primaries                          : BT.709
Transfer characteristics                 : BT.709
Matrix coefficients                      : BT.709

Audio
ID                                       : 2
Format                                   : AC-3
Format/Info                              : Audio Coding 3
Mode extension                           : CM (complete main)
Format settings, Endianness              : Big
Codec ID                                 : A_AC3
Duration                                 : 2 h 11 min
Bit rate mode                            : Constant
Bit rate                                 : 384 kb/s
Channel(s)                               : 6 channels
Channel positions                        : Front: L C R, Side: L R, LFE
Sampling rate                            : 48.0 kHz
Frame rate                               : 31.250 FPS (1536 spf)
Compression mode                         : Lossy
Stream size                              : 361 MiB (18%)
Title                                    : iTunes
Language                                 : Russian
Default                                  : Yes
Forced                                   : No

Menu
00:00:00.000                             : en:Глава 1
00:03:56.041                             : en:Глава 2
00:09:23.124                             : en:Глава 3
00:18:19.249                             : en:Глава 4
00:27:39.289                             : en:Глава 5
00:36:00.830                             : en:Глава 6
00:45:05.455                             : en:Глава 7
00:51:03.330                             : en:Глава 8
00:57:57.121                             : en:Глава 9
01:03:24.579                             : en:Глава 10
01:08:52.703                             : en:Глава 11
01:21:23.494                             : en:Глава 12
01:27:46.744                             : en:Глава 13
01:37:29.285                             : en:Глава 14
01:41:41.867                             : en:Глава 15
01:50:58.199                             : en:Глава 16
01:55:22.781                             : en:Глава 17
02:00:59.488                             : en:Глава 18




Скриншоты:
[+] Всего файлов в раздаче - 1:
The.Perfect.Patient.2019.WEB-DL.ExKinoRay.mkv1.98 GB

Показать еще раздачи по запросу идеальный:
2020-03-02 U (НЕ)идеальный мужчина (2020) WEB-DLRip-AVC | iTunes 1.46 GB ↑ 218 ↓ 57
2020-03-02 U (НЕ)идеальный мужчина (2020) WEB-DL 720p | iTunes 2.72 GB ↑ 125 ↓ 41
2020-03-02 U (НЕ)идеальный мужчина (2020) WEB-DLRip | iTunes 740.14 MB ↑ 366 ↓ 70
2020-03-02 U (НЕ)идеальный мужчина (2020) WEB-DLRip | iTunes 1.46 GB ↑ 545 ↓ 166
2020-03-02 U (НЕ)идеальный мужчина (2020) WEB-DL 1080p | iTunes 3.11 GB ↑ 931 ↓ 315
2020-02-16 U Идеальный пациент / Quick / The Perfect Patient (2019) BDRip 1080p от селезень | iTunes 11.36 GB ↑ 310 ↓ 60
2020-01-28 U Идеальный пациент / The Perfect Patient (2019) WEB-DL 1080p | iTunes 4.54 GB ↑ 543 ↓ 300

Отзывы
Зарегистрируйтесь чтобы добавить комментарий.
Обратная связь
Copyleft ©