↑↓torrent.by
Поиск
Логин: Регистрация
Пароль: Восстановить пароль

Хороший лжец / The Good Liar (2019) HDRip | А

Скачать horoshiy-lzhec-the-good-liar-2019-hdrip-a.torrent
U Магнитная ссылка Размер: 699.92 MB Раздают: 57 Качают: 7 Добавлен: 2020-01-28 12:00:21
Хороший лжец / The Good Liar (2019) HDRip | А

Название: Хороший лжец
Оригинальное название: The Good Liar
Год выхода: 2019
Жанр:  драма, детектив
Режиссер: Билл Кондон
В ролях: Хелен Миррен, Иэн Маккеллен, Рассел Тови, Джим Картер, Марк Льюис Джонс, Лори Дэвидсон, Фил Данстер, Лусиан Мсамати, Йоуханнес Хёйкьюр Йоуханнессон, Тунджи Касим и др.

О фильме: Профессиональный мошенник Рой Кортни знакомится в сети с богатой вдовой Бетти Маклиш. Очаровав вдову, Рой начинает сравнительно честный отъём денег, но сталкивается с неожиданными препятствиями.

Страна: Великобритания, США, Германия
Студия: Bron Studios, Creative Wealth Media Finance, New Line Cinema
Продолжительность: 01:49:37
Перевод: Авторский одноголосый (закадровый текст читал Вячеслав Замез aka zamez)
Субтитры: нет

Файл
Формат: AVI
Качество: HDRip
Видео: 688x288 (2.39:1), 23.976 fps, XviD build 73 ~755 kbps avg, 0.16 bit/pixel
Аудио: 48 kHz, MPEG Layer 3, 2 ch, ~128.00 kbps avg
[+] MediaInfo:
Общее
Полное имя : D:Хороший лжец.(2019).HDRip.700.mb.avi
Формат : AVI
Формат/Информация : Audio Video Interleave
Размер файла : 700 Мбайт
Продолжительность : 1 ч. 49 м.
Общий поток : 893 Кбит/сек
Программа кодирования : VirtualDubMod 1.5.10.3 | (build 2550/release)
Библиотека кодирования : VirtualDubMod build 2550/release

Видео
Идентификатор : 0
Формат : MPEG-4 Visual
Профиль формата : Advanced Simple@L5
Параметр BVOP формата : 1
Параметр QPel формата : Нет
Параметр GMC формата : Без точки перехода
Параметр матрицы формата : Выборочная
Идентификатор кодека : XVID
Идентификатор кодека/Подсказка : XviD
Продолжительность : 1 ч. 49 м.
Битрейт : 755 Кбит/сек
Ширина : 688 пикселей
Высота : 288 пикселей
Соотношение сторон : 2,40:1
Частота кадров : 23,976 кадра/сек
Цветовое пространство : YUV
Субдискретизация насыщенности : 4:2:0
Битовая глубина : 8 бит
Тип развёртки : Прогрессивная
Метод сжатия : С потерями
Бит/(Пиксели*Кадры) : 0.159
Размер потока : 592 Мбайт (85%)
Библиотека кодирования : XviD 73

Аудио
Идентификатор : 1
Формат : MPEG Audio
Версия формата : Version 1
Профиль формата : Layer 3
Идентификатор кодека : 55
Идентификатор кодека/Подсказка : MP3
Продолжительность : 1 ч. 49 м.
Вид битрейта : Постоянный
Битрейт : 128 Кбит/сек
Каналы : 2 канала
Частота : 48,0 КГц
Метод сжатия : С потерями
Размер потока : 100 Мбайт (14%)
Выравнивание : Соединение по промежуткам
Продолжительность промежутка : 42 мс. (1,00 видеокадр)
Время предзагрузки промежутка : 504 мс.
Библиотека кодирования : LAME3.99r
Настройки программы : -m s -V 4 -q 2 -lowpass 17 -b 128




Скриншоты:
[+] Всего файлов в раздаче - 1:
Хороший лжец.(2019).HDRip.700.mb.avi699.92 MB

Похожие раздачи по запросу - хороший:
2017-12-28 U Стэнли Милгрэм - Как хороший человек становится негодяем (2017) FB2 3.54 MB ↑ 558 ↓ 24

Отзывы
Зарегистрируйтесь чтобы добавить комментарий.
Загрузите программу
  uTorrent.exe
Обратная связь
Copyleft ©