↑↓torrent.by
Поиск
Логин: Регистрация
Пароль: Восстановить пароль

Стражи Арктики / Arctic Justice (2019) BDRip 1080p | iTunes

Скачать strazhi-arktiki-arctic-justice-2019-bdrip-1080p-itunes.torrent
U Магнитная ссылка Размер: 9.43 GB Раздают: 166 Качают: 105 Добавлен: 2020-01-28 16:41:30
Стражи Арктики / Arctic Justice (2019) BDRip 1080p | iTunes

«Time to Run With the Big Dogs!»

Название: Стражи Арктики
Оригинальное название: Arctic Justice
Год выхода: 2019
Жанр: Мультфильм, комедия, приключения, семейный
Режиссер: Аарон Вудли
Роли озвучивают: Джереми Реннер, Хайди Клум, Джеймс Франко, Джон Клиз, Омар Си, Лори Холден, Анжелика Хьюстон, Алек Болдуин, Донни Фалсетти, Сорайя Аззаби

О фильме:
Добро пожаловать на ЗвероПолюс, где власть находится в лапах больших, сильных и зубастых. Ради собственного превосходства они готовы переделать под себя весь мир. Лишь маленькие, но очень храбрые встанут на защиту не только родного Северного полюса, но и целой планеты. Именно они — настоящие Стражи Арктики.

Страна: Индия, Великобритания, Китай, Канада, Япония, Корея Южная, США
Студия: AMBI Group, Arctic Justice Movie, Assemblage Entertainment, Мосфильм-Мастер, QMI
Продолжительность: 01:32:54
Перевод:
• Профессиональный (полное дублирование) | iTunes

Файл
Качество: BDRip 1080p
Формат: MKV
Кодек: MPEG-4 AVC
Видео: 1920x804 (2,40:1), 23.976 fps, MPEG-4 AVC ~ 13.1 Mbps avg, 0.355 bit/pixel
Аудио: AC3, 48 kHz, 6 ch, ~384.00 kbps avg | русский | iTunes
Аудио: AC3, 48 kHz, 6 ch, ~384.00 kbps avg | украинский | iTunes
Аудио: AC3, 48 kHz, 6 ch, ~640.00 kbps avg | английский | Оригинал

Субтитры: Английские (SDH)


[+] Инфо-файл
Общее
Уникальный идентификатор                 : 196941590712635132505524469206981725821 (0x94299218675D31EDDF860518238ACE7D)
Полное имя                               : Arctic.Justice.2019.iT.1080p.BluRay.x264.mkv
Формат                                   : Matroska
Версия формата                           : Version 4
Размер файла                             : 9,43 Гбайт
Продолжительность                        : 1 ч. 32 м.
Общий поток                              : 14,5 Мбит/сек
Название фильма                          : Стражи Арктики / Arctic Justice (2019)
Дата кодирования                         : UTC 2020-01-28 07:43:37
Программа кодирования                    : mkvmerge v41.0.0 ('Smarra') 64-bit
Библиотека кодирования                   : libebml v1.3.9 + libmatroska v1.5.2
Обложка                                  : Yes
Attachments                              : cover.jpg

Видео
Идентификатор                            : 1
Формат                                   : AVC
Формат/Информация                        : Advanced Video Codec
Профиль формата                          : High@L4.1
Настройки формата                        : CABAC / 5 Ref Frames
Параметр CABAC формата                   : Да
Параметр RefFrames формата               : 5 кадров
Идентификатор кодека                     : V_MPEG4/ISO/AVC
Продолжительность                        : 1 ч. 32 м.
Битрейт                                  : 13,1 Мбит/сек
Ширина                                   : 1920 пикселей
Высота                                   : 804 пикселя
Соотношение сторон                       : 2,40:1
Режим частоты кадров                     : Постоянный
Частота кадров                           : 23,976 (24000/1001) кадра/сек
Цветовое пространство                    : YUV
Субдискретизация насыщенности            : 4:2:0
Битовая глубина                          : 8 бит
Тип развёртки                            : Прогрессивная
Бит/(Пиксели*Кадры)                      : 0.355
Размер потока                            : 8,51 Гбайт (90%)
Заголовок                                : iFT
Библиотека кодирования                   : x264 core 159 r2991+49 ~ Encoded by Mocunaman in Portugal
Настройки программы                      : cabac=1 / ref=5 / deblock=1:1:1 / analyse=0x3:0x113 / me=umh / subme=10 / psy=1 / fade_compensate=0.00 / psy_rd=1.00:0.00 / mixed_ref=1 / me_range=32 / chroma_me=1 / trellis=2 / 8x8dct=1 / cqm=0 / deadzone=21,11 / fast_pskip=0 / chroma_qp_offset=-2 / threads=25 / lookahead_threads=4 / sliced_threads=0 / nr=0 / decimate=0 / interlaced=0 / bluray_compat=0 / constrained_intra=0 / fgo=0 / bframes=9 / b_pyramid=2 / b_adapt=2 / b_bias=0 / direct=3 / weightb=1 / open_gop=0 / weightp=2 / keyint=250 / keyint_min=23 / scenecut=40 / intra_refresh=0 / rc_lookahead=60 / rc=crf / mbtree=0 / crf=13.0000 / qcomp=0.60 / qpmin=0:0:0 / qpmax=69:69:69 / qpstep=4 / vbv_maxrate=62500 / vbv_bufsize=78125 / crf_max=0.0 / nal_hrd=none / filler=0 / ip_ratio=1.30 / pb_ratio=1.20 / aq=3:0.80 / aq-sensitivity=10.00 / aq-factor=1.00:1.00:1.00 / aq2=0 / aq3=0
Язык                                     : English
Default                                  : Да
Forced                                   : Нет
Цветовой диапазон                        : Limited
Основные цвета                           : BT.709
Характеристики трансфера                 : BT.709
Коэффициенты матрицы                     : BT.709

Аудио #1
Идентификатор                            : 2
Формат                                   : AC-3
Формат/Информация                        : Audio Coding 3
Коммерческое название                    : Dolby Digital
Идентификатор кодека                     : A_AC3
Продолжительность                        : 1 ч. 32 м.
Вид битрейта                             : Постоянный
Битрейт                                  : 384 Кбит/сек
Каналы                                   : 6 каналов
ChannelLayout                            : L R C LFE Ls Rs
Частота                                  : 48,0 КГц
Частота кадров                           : 31,250 кадров/сек (1536 SPF)
Метод сжатия                             : С потерями
Размер потока                            : 255 Мбайт (3%)
Заголовок                                : DUB | iTunes
Язык                                     : Russian
Default                                  : Да
Forced                                   : Да

Аудио #2
Идентификатор                            : 3
Формат                                   : AC-3
Формат/Информация                        : Audio Coding 3
Коммерческое название                    : Dolby Digital
Идентификатор кодека                     : A_AC3
Продолжительность                        : 1 ч. 32 м.
Вид битрейта                             : Постоянный
Битрейт                                  : 384 Кбит/сек
Каналы                                   : 6 каналов
ChannelLayout                            : L R C LFE Ls Rs
Частота                                  : 48,0 КГц
Частота кадров                           : 31,250 кадров/сек (1536 SPF)
Метод сжатия                             : С потерями
Размер потока                            : 255 Мбайт (3%)
Заголовок                                : DUB | iTunes
Язык                                     : Ukrainian
Default                                  : Нет
Forced                                   : Нет

Аудио #3
Идентификатор                            : 4
Формат                                   : AC-3
Формат/Информация                        : Audio Coding 3
Коммерческое название                    : Dolby Digital
Идентификатор кодека                     : A_AC3
Продолжительность                        : 1 ч. 32 м.
Вид битрейта                             : Постоянный
Битрейт                                  : 640 Кбит/сек
Каналы                                   : 6 каналов
ChannelLayout                            : L R C LFE Ls Rs
Частота                                  : 48,0 КГц
Частота кадров                           : 31,250 кадров/сек (1536 SPF)
Метод сжатия                             : С потерями
Размер потока                            : 425 Мбайт (4%)
Заголовок                                : Original
Язык                                     : English
Default                                  : Нет
Forced                                   : Нет

Текст
Идентификатор                            : 5
Формат                                   : UTF-8
Идентификатор кодека                     : S_TEXT/UTF8
Идентификатор кодека/Информация          : UTF-8 Plain Text
Продолжительность                        : 1 ч. 31 м.
Битрейт                                  : 69 бит/сек
ElementCount                             : 1599
Размер потока                            : 46,7 Кбайт (0%)
Заголовок                                : SDH
Язык                                     : English
Default                                  : Нет
Forced                                   : Нет

Меню
00:00:00.000                             : en:Chapter 01
00:06:18.628                             : en:Chapter 02
00:12:54.524                             : en:Chapter 03
00:18:57.553                             : en:Chapter 04
00:23:55.267                             : en:Chapter 05
00:27:27.521                             : en:Chapter 06
00:33:06.151                             : en:Chapter 07
00:39:50.388                             : en:Chapter 08
00:47:18.002                             : en:Chapter 09
00:52:12.796                             : en:Chapter 10
00:58:18.370                             : en:Chapter 11
01:04:20.607                             : en:Chapter 12
01:12:02.193                             : en:Chapter 13
01:16:21.744                             : en:Chapter 14
01:20:27.489                             : en:Chapter 15
01:26:59.548                             : en:Chapter 16



Скриншоты:
[+] Всего файлов в раздаче - 1:
Arctic.Justice.2019.iT.1080p.BluRay.x264.mkv9.43 GB

Показать еще раздачи по запросу стражи:
2020-01-29 U Стражи Арктики / Arctic Justice (2019) BDRip-AVC от OlLanDGroup | iTunes 1.46 GB ↑ 242 ↓ 159
2020-01-28 U Стражи Арктики / Arctic Justice (2019) BDRip | iTunes 1.42 GB ↑ 189 ↓ 55
2017-08-11 U Стражи Галактики. Часть 2 / Guardians of the Galaxy Vol. 2 (2017) BDRemux 1080p от ExKinoRay | iTunes 30.95 GB ↑ 158 ↓ 137
2017-08-08 U Стражи Галактики. Часть 2 / Guardians of the Galaxy Vol. 2 (2017) WEB-DLRip-AVC от k.e.n & MegaPeer | iTunes 1.46 GB ↑ 1440 ↓ 256
2017-08-08 U Стражи Галактики. Часть 2 / Guardians of the Galaxy Vol. 2 (2017) BDRip 1080p | iTunes 10.20 GB ↑ 1370 ↓ 1434
2017-08-08 U Стражи Галактики. Часть 2 / Guardians of the Galaxy Vol. 2 (2017) WEB-DL 1080p | iTunes 5.14 GB ↑ 3279 ↓ 1566
2014-11-18 U Стражи Галактики / Guardians of the Galaxy (2014) BDRip 720p от KinoRay | iTunes 6.17 GB ↑ 1030 ↓ 19194

Отзывы
Зарегистрируйтесь чтобы добавить комментарий.
Обратная связь
Copyleft ©