↑↓torrent.by
Поиск
Логин: Регистрация
Пароль: Восстановить пароль

Стражи Арктики / Arctic Justice (2019) BDRip-AVC от OlLanDGroup | iTunes

Скачать strazhi-arktiki-arctic-justice-2019-bdrip-avc-ot-ollandgroup-itunes.torrent
U Магнитная ссылка Размер: 1.46 GB Раздают: 242 Качают: 159 Добавлен: 2020-01-29 16:56:10
Стражи Арктики / Arctic Justice (2019) BDRip-AVC от OlLanDGroup | iTunes

Название: Стражи Арктики
Оригинальное название: Arctic Justice
Год выхода: 2019
Жанр: мультфильм, комедия, приключения, семейный
Режиссер: Аарон Вудли
В ролях: Укажите актеров, через запятую

О фильме: Добро пожаловать на ЗвероПолюс, где власть находится в лапах больших, сильных и зубастых. Ради собственного превосходства они готовы переделать под себя весь мир. Лишь маленькие, но очень храбрые встанут на защиту не только родного Северного полюса, но и целой планеты. Именно они — настоящие Стражи Арктики.

Страна: Индия, Великобритания, Китай, Канада, Япония, Корея Южная, США
Студия: AMBI Group, Arctic Justice Movie, Assemblage Entertainment, Мосфильм-Мастер, QMI
Продолжительность: 01:32:54
Перевод: Дублированный | iTunes

Файл
Формат: MKV
Качество: BDRip-AVC
Источник: |Arctic.Dogs.2019.iT.1080p.BluRay.REMUX.AVC.Rus.Ukr.Eng|
Видео: 1024x428 (2.40:1), 23.976 fps, x264 ~1862 kbps avg, 0.177 bit/pixel
Аудио #1: 48 kHz, AC3 Dolby Digital, 2/0 (L,R) ch, ~192.00 kbps avg | RUS
Аудио #2: 48 kHz, AC3 Dolby Digital, 2/0 (L,R) ch, ~192.00 kbps avg | ENG
Субтитры: Английские

Релиз:


[+] MediaInfo:
General
Unique ID                      : 231017339489337804998668477534541473017 (0xADCC5238D22931F3CC2044093A0464F9)
Complete name                  : D:OlLanDGroupiTunesArctic.Justice.2019.BDRip(AVC).1.45Gb.OlLanDGroup.mkv
Format                         : Matroska
Format version                 : Version 4
File size                      : 1.46 GiB
Duration                       : 1 h 32 min
Overall bit rate               : 2 247 kb/s
Movie name                     : Arctic.Justice.2019.BDRip(AVC).OlLanDGroup#Skandar#
Encoded date                   : UTC 2020-01-29 04:16:38
Writing application            : mkvmerge v31.0.0 ('Dolores In A Shoestand') 64-bit
Writing library                : libebml v1.3.6 + libmatroska v1.4.9

Video
ID                             : 1
Format                         : AVC
Format/Info                    : Advanced Video Codec
Format profile                 : High@L4.1
Format settings                : CABAC / 10 Ref Frames
Format settings, CABAC         : Yes
Format settings, ReFrames      : 10 frames
Codec ID                       : V_MPEG4/ISO/AVC
Duration                       : 1 h 32 min
Bit rate                       : 1 862 kb/s
Width                          : 1 024 pixels
Height                         : 428 pixels
Display aspect ratio           : 2.40:1
Frame rate mode                : Constant
Frame rate                     : 23.976 (24000/1001) FPS
Color space                    : YUV
Chroma subsampling             : 4:2:0
Bit depth                      : 8 bits
Scan type                      : Progressive
Bits/(Pixel*Frame)             : 0.177
Stream size                    : 1.21 GiB (83%)
Title                          : Arctic.Justice.2019.BDRip(AVC).OlLanDGroup#Skandar#
Writing library                : x264 core 146 r2538 121396c
Encoding settings              : cabac=1 / ref=10 / deblock=1:-3:-3 / analyse=0x3:0x133 / me=umh / subme=11 / psy=1 / psy_rd=0.97:0.05 / mixed_ref=1 / me_range=48 / chroma_me=1 / trellis=2 / 8x8dct=1 / cqm=0 / deadzone=21,11 / fast_pskip=0 / chroma_qp_offset=-3 / threads=6 / lookahead_threads=1 / sliced_threads=0 / nr=0 / decimate=0 / interlaced=0 / bluray_compat=0 / constrained_intra=0 / bframes=11 / b_pyramid=2 / b_adapt=2 / b_bias=0 / direct=3 / weightb=1 / open_gop=0 / weightp=2 / keyint=240 / keyint_min=23 / scenecut=40 / intra_refresh=0 / rc_lookahead=40 / rc=2pass / mbtree=0 / bitrate=1862 / ratetol=1.0 / qcomp=0.60 / qpmin=0 / qpmax=69 / qpstep=4 / cplxblur=20.0 / qblur=0.5 / vbv_maxrate=50000 / vbv_bufsize=62500 / nal_hrd=none / filler=0 / ip_ratio=1.40 / pb_ratio=1.30 / aq=1:1.00
Language                       : English
Default                        : Yes
Forced                         : No

Audio #1
ID                             : 2
Format                         : AC-3
Format/Info                    : Audio Coding 3
Commercial name                : Dolby Digital
Codec ID                       : A_AC3
Duration                       : 1 h 32 min
Bit rate mode                  : Constant
Bit rate                       : 192 kb/s
Channel(s)                     : 2 channels
Channel layout                 : L R
Sampling rate                  : 48.0 kHz
Frame rate                     : 31.250 FPS (1536 SPF)
Bit depth                      : 16 bits
Compression mode               : Lossy
Stream size                    : 128 MiB (9%)
Title                          : DUB | iTunes
Language                       : Russian
Service kind                   : Complete Main
Default                        : Yes
Forced                         : No

Audio #2
ID                             : 3
Format                         : AC-3
Format/Info                    : Audio Coding 3
Commercial name                : Dolby Digital
Codec ID                       : A_AC3
Duration                       : 1 h 32 min
Bit rate mode                  : Constant
Bit rate                       : 192 kb/s
Channel(s)                     : 2 channels
Channel layout                 : L R
Sampling rate                  : 48.0 kHz
Frame rate                     : 31.250 FPS (1536 SPF)
Bit depth                      : 16 bits
Compression mode               : Lossy
Stream size                    : 128 MiB (9%)
Title                          : Original
Language                       : English
Service kind                   : Complete Main
Default                        : No
Forced                         : No

Text
ID                             : 4
Format                         : UTF-8
Codec ID                       : S_TEXT/UTF8
Codec ID/Info                  : UTF-8 Plain Text
Duration                       : 1 h 31 min
Bit rate                       : 69 b/s
Count of elements              : 1599
Stream size                    : 46.7 KiB (0%)
Title                          : SDH
Language                       : English
Default                        : No
Forced                         : No

Menu
00:00:00.000                   : en:Chapter 01
00:06:18.628                   : en:Chapter 02
00:12:54.524                   : en:Chapter 03
00:18:57.553                   : en:Chapter 04
00:23:55.267                   : en:Chapter 05
00:27:27.521                   : en:Chapter 06
00:33:06.151                   : en:Chapter 07
00:39:50.388                   : en:Chapter 08
00:47:18.002                   : en:Chapter 09
00:52:12.796                   : en:Chapter 10
00:58:18.370                   : en:Chapter 11
01:04:20.607                   : en:Chapter 12
01:12:02.193                   : en:Chapter 13
01:16:21.744                   : en:Chapter 14
01:20:27.489                   : en:Chapter 15
01:26:59.548                   : en:Chapter 16



Скриншоты:
[+] Всего файлов в раздаче - 1:
Arctic.Justice.2019.BDRip(AVC).1.45Gb.OlLanDGroup.mkv1.46 GB

Показать еще раздачи по запросу стражи:
2020-01-28 U Стражи Арктики / Arctic Justice (2019) BDRip 1080p | iTunes 9.43 GB ↑ 165 ↓ 105
2020-01-28 U Стражи Арктики / Arctic Justice (2019) BDRip | iTunes 1.42 GB ↑ 187 ↓ 55
2017-08-11 U Стражи Галактики. Часть 2 / Guardians of the Galaxy Vol. 2 (2017) BDRemux 1080p от ExKinoRay | iTunes 30.95 GB ↑ 158 ↓ 137
2017-08-08 U Стражи Галактики. Часть 2 / Guardians of the Galaxy Vol. 2 (2017) WEB-DLRip-AVC от k.e.n & MegaPeer | iTunes 1.46 GB ↑ 1438 ↓ 256
2017-08-08 U Стражи Галактики. Часть 2 / Guardians of the Galaxy Vol. 2 (2017) BDRip 1080p | iTunes 10.20 GB ↑ 1370 ↓ 1434
2017-08-08 U Стражи Галактики. Часть 2 / Guardians of the Galaxy Vol. 2 (2017) WEB-DL 1080p | iTunes 5.14 GB ↑ 3279 ↓ 1566
2014-11-18 U Стражи Галактики / Guardians of the Galaxy (2014) BDRip 720p от KinoRay | iTunes 6.17 GB ↑ 1030 ↓ 19194

Отзывы
Зарегистрируйтесь чтобы добавить комментарий.
Обратная связь
Copyleft ©