↑↓torrent.by
Поиск
Логин: Регистрация
Пароль: Восстановить пароль

Ледокол (2016) BDRip 1080p от New-Team & qqss44 | Лицензия

Скачать ledokol-2016-bdrip-1080p-ot-new-team-qqss44-licenziya.torrent
U Магнитная ссылка Размер: 7.74 GB Раздают: 31 Качают: 22 Добавлен: 2021-09-20 17:09:58
Ледокол (2016) BDRip 1080p от New-Team & qqss44 | Лицензия

Анонсы 1080p от qqss44✘ Ледокол ✘


✦ Год выхода: 2016
✦ Название: Ледокол
✦ Жанр: Драма, фильм-катастрофа, приключения
✦ Режиссер: Николай Хомерики
✦ В ролях: Пётр Фёдоров, Сергей Пускепалис, Анна Михалкова, Ольга Смирнова (II), Александр Яценко, Александр Паль, Виталий Хаев, Алексей Барабаш, Дмитрий Муляр, Артур Чиргадзе

Описание фильма
Основано на реальных событиях. 1985 год. Навстречу ледоколу «Михаил Громов» движется огромный айсберг. Уходя от столкновения с ним, судно попадает в ледовый плен и оказывается в вынужденном дрейфе вблизи побережья Антарктиды. Вокруг зловещая тишина и жуткий холод. Горючее на исходе… Нервы на пределе… И даже если можно было бы уйти — деваться все равно некуда. У командования ледокола нет права на ошибку. Одно неверное решение — и тяжелые льды раздавят судно…

✦ Выпущено: Россия, Профит
✦ Продолжительность: 02:03:57
✦ Язык: русский

Информация о файле
✦ Формат:| MKV | x264 |
✦ Качество: BDRip 1080p
✦ Видео: X264/MPEG4-AVC | 1920x804 (2.40:1) | ~8303 kbps | 24 fps
✦ Аудио Rus: AC3 | 48 KHz | 5.1 (Front: L С R Side: L R) + LFE | ~640 kbps

Релиз от:


[+] ✘ MediaInfo ✘

x264 [info]: frame I:1236  Avg QP:14.79  size:151808
x264 [info]: frame P:45951 Avg QP:17.52  size: 73736
x264 [info]: frame B:131319 Avg QP:19.55  size: 31528

Общее
Уникальный идентификатор                 : 217925523110245323379824400322571152359 (0xA3F2EDD6E777B724BBB8A733F57E2BE7)
Полное имя                               : X:ATorrentledokol.(2016).BDRip.1080.(qqss44).mkv
Формат                                   : Matroska
Версия формата                           : Version 2
Размер файла                             : 7,74 Гбайт
Продолжительность                        : 2 ч. 3 м.
Общий поток                              : 8941 Кбит/сек
Название фильма                          : ledokol.(2016).BDRip.1080.(qqss44)
Дата кодирования                         : UTC 2016-12-09 13:47:34
Программа кодирования                    : mkvmerge v7.9.0 ('Birds') 64bit
Библиотека кодирования                   : libebml v1.3.1 + libmatroska v1.4.2

Видео
Идентификатор                            : 1
Формат                                   : AVC
Формат/Информация                        : Advanced Video Codec
Профиль формата                          : High@L4.1
Параметр CABAC формата                   : Да
Параметр ReFrames формата                : 5 кадров
Идентификатор кодека                     : V_MPEG4/ISO/AVC
Продолжительность                        : 2 ч. 3 м.
Битрейт                                  : 8303 Кбит/сек
Ширина                                   : 1920 пикселей
Высота                                   : 804 пикселя
Соотношение сторон                       : 2,40:1
Режим частоты кадров                     : Постоянный
Частота кадров                           : 24,000 кадра/сек
Цветовое пространство                    : YUV
Субдискретизация насыщенности            : 4:2:0
Битовая глубина                          : 8 бит
Тип развёртки                            : Прогрессивная
Бит/(Пиксели*Кадры)                      : 0.224
Размер потока                            : 7,19 Гбайт (93%)
Заголовок                                : ledokol.(2016).BDRip.1080.(qqss44)
Библиотека кодирования                   : x264 core 148 r2721kMod 72d53ab
Настройки программы                      : cabac=1 / ref=5 / deblock=1:-3:-3 / analyse=0x3:0x133 / me=umh / subme=11 / psy=1 / fade_compensate=0.00 / psy_rd=1.00:0.00 / mixed_ref=1 / me_range=32 / chroma_me=1 / trellis=2 / 8x8dct=1 / cqm=0 / deadzone=21,11 / fast_pskip=0 / chroma_qp_offset=-2 / threads=12 / lookahead_threads=3 / sliced_threads=0 / nr=0 / decimate=0 / interlaced=0 / bluray_compat=0 / constrained_intra=0 / fgo=0 / bframes=10 / b_pyramid=2 / b_adapt=2 / b_bias=0 / direct=3 / weightb=1 / open_gop=0 / weightp=2 / keyint=240 / keyint_min=23 / scenecut=40 / intra_refresh=0 / rc=2pass / mbtree=0 / bitrate=8303 / ratetol=1.0 / qcomp=0.60 / qpmin=0 / qpmax=69 / qpstep=4 / cplxblur=20.0 / qblur=0.5 / ip_ratio=1.40 / pb_ratio=1.30 / aq=3:0.80
Язык                                     : English
Default                                  : Да
Forced                                   : Нет

Аудио
Идентификатор                            : 2
Формат                                   : AC-3
Формат/Информация                        : Audio Coding 3
Расширение режима                        : CM (complete main)
Параметр Endianness формата              : Big
Идентификатор кодека                     : A_AC3
Продолжительность                        : 2 ч. 3 м.
Вид битрейта                             : Постоянный
Битрейт                                  : 640 Кбит/сек
Каналы                                   : 6 каналов
Расположение каналов                     : Front: L C R, Side: L R, LFE
Частота                                  : 48,0 КГц
Частота кадров                           : 31,250 кадров/сек (1536 spf)
Метод сжатия                             : С потерями
Размер потока                            : 567 Мбайт (7%)
Язык                                     : Russian
Default                                  : Да
Forced                                   : Нет

Меню
00:00:00.000                             : en:00:00:00.000
00:01:27.667                             : en:00:01:27.667
00:14:46.833                             : en:00:14:46.833
00:29:43.208                             : en:00:29:43.208
00:43:48.375                             : en:00:43:48.375
01:00:09.125                             : en:01:00:09.125
01:14:15.625                             : en:01:14:15.625
01:29:17.625                             : en:01:29:17.625
01:47:28.042                             : en:01:47:28.042




Скриншоты:
[+] Всего файлов в раздаче - 1:
ledokol.(2016).BDRip.1080.(qqss44).mkv7.74 GB

Отзывы
Зарегистрируйтесь чтобы добавить комментарий.
Загрузите программу
  byTorrent
Обратная связь
Copyleft ©