↑↓torrent.by
Поиск
Логин:  Регистрация
Пароль:

Whitesnake - Greatest Hits (1994) FLAC

download Скачать торрент-файл   magnet Магнитная ссылка Размер: 517.24 MB Добавлен: 2024-01-21 17:00
Пиры будут получены из сети DHT
Последний сидер был замечен 2024-02-12 09:15
Исполнитель: Whitesnake Название: Greatest Hits Издатель: EMI Номер диска по каталогу: 50999 5004592 1 Источник: Диск из личной коллекции Год: 1994 Жанр: Hard-Rock Страна: США Кодек: FLAC Битрейт аудио: Lossless Формат: image+.cue+.log Продолжительность: 01:08:02 Официальный сайт
[+] Трек-лист01. Still Of The Night 02. Here I Go Again (Previously Unavailable On LP Radio Mix) 03. Is This Love 04. Love Ain’t No Stranger 05. Looking For Love (Previously Unavailable On LP) 06. Now You’re Gone 07. Slide It In 08. Slow An’ Easy 09. Judgement Day 10. You’re Gonna Break My Heart Again (Previously Unavailable On LP) 11. The Deeper The Love 12. Crying In The Rain 13. Fool For Your Loving 14. Sweet Lady Luck (Previously Unavailable On LP)
[+] Отчёт ЕАСExact Audio Copy V1.6 from 23. October 2020 Отчёт EAC об извлечении, выполненном 20. января 2024, 20:53 WHITESNAKE / "Greatest Hits" Дисковод: ASUS SBW-06C1S-U Adapter: 0 ID: 0 Режим чтения : Достоверность Использование точного потока : Да Отключение кэша аудио : Да Использование указателей C2 : Нет Коррекция смещения при чтении : 48 Способность читать области Lead-in и Lead-out : Нет Заполнение пропущенных сэмплов тишиной : Да Удаление блоков с тишиной в начале и конце : Нет При вычислениях CRC использовались нулевые сэмплы : Да Интерфейс : Установленный внешний ASPI-интерфейс Выходной формат : Пользовательский кодировщик Выбранный битрейт : 1024 kBit/s Качество : Высокий Добавление ID3-тега : Нет Утилита сжатия : C:Program Files (x86)Exact Audio CopyFlacflac.exe Дополнительные параметры : -8 -V -T "TITLE=%title%" -T "ARTIST=%artist%" -T "ALBUMARTIST=%albumartist%" -T "ALBUM=%albumtitle%" -T "DATE=%year%" -T "TRACKNUMBER=%tracknr%" -T "TRACKTOTAL=%numtracks%" -T "GENRE=%genre%" -T "COMMENT=%comment%" -T "PERFORMER=%albuminterpret%" -T "COMPOSER=%composer%" %source% -o %dest% TOC извлечённого CD Трек | Старт | Длительность | Начальный сектор | Конечный сектор --------------------------------------------------------------------- 1 | 0:00.33 | 6:39.10 | 33 | 29967 2 | 6:39.43 | 3:53.42 | 29968 | 47484 3 | 10:33.10 | 4:44.30 | 47485 | 68814 4 | 15:17.40 | 4:17.55 | 68815 | 88144 5 | 19:35.20 | 6:31.43 | 88145 | 117512 6 | 26:06.63 | 4:12.37 | 117513 | 136449 7 | 30:19.25 | 3:19.68 | 136450 | 151442 8 | 33:39.18 | 6:09.62 | 151443 | 179179 9 | 39:49.05 | 5:16.73 | 179180 | 202952 10 | 45:06.03 | 4:10.70 | 202953 | 221772 11 | 49:16.73 | 4:22.42 | 221773 | 241464 12 | 53:39.40 | 5:36.43 | 241465 | 266707 13 | 59:16.08 | 4:11.02 | 266708 | 285534 14 | 63:27.10 | 4:35.05 | 285535 | 306164 Характеристики диапазона извлечения и сообщения об ошибках Выбранный диапазон Имя файла D:RazdachiAudioWhitesnake - 1994 - Greatest Hits WHITESNAKE - ''Greatest Hits''.wav Пиковый уровень 100.0 % Скорость извлечения 15.4 X Качество диапазона 100.0 % CRC теста B8203E30 CRC копии B8203E30 Копирование... OK Ошибок не произошло AccurateRip: сводка Трек 1 : извлечено точно (достоверность 8) (AR v2) Трек 2 : извлечено точно (достоверность 8) (AR v2) Трек 3 : извлечено точно (достоверность 8) (AR v2) Трек 4 : извлечено точно (достоверность 8) (AR v2) Трек 5 : извлечено точно (достоверность 8) (AR v2) Трек 6 : извлечено точно (достоверность 8) (AR v2) Трек 7 : извлечено точно (достоверность 8) (AR v2) Трек 8 : извлечено точно (достоверность 8) (AR v2) Трек 9 : извлечено точно (достоверность 8) (AR v2) Трек 10 : извлечено точно (достоверность 8) (AR v2) Трек 11 : извлечено точно (достоверность 8) (AR v2) Трек 12 : извлечено точно (достоверность 8) (AR v2) Трек 13 : извлечено точно (достоверность 8) (AR v2) Трек 14 : извлечено точно (достоверность 8) (AR v2) Все треки извлечены точно Конец отчёта ---- CUETools DB Plugin V2.1.6 found Submit result: cWsJmisfglqnIf.w6Z5vdEjkjfA- has been confirmed Track | CTDB Status 1 | (877/895) Accurately ripped 2 | (884/895) Accurately ripped 3 | (881/895) Accurately ripped 4 | (883/895) Accurately ripped 5 | (885/895) Accurately ripped 6 | (882/895) Accurately ripped 7 | (884/895) Accurately ripped 8 | (883/895) Accurately ripped 9 | (881/895) Accurately ripped 10 | (882/895) Accurately ripped 11 | (880/895) Accurately ripped 12 | (878/895) Accurately ripped 13 | (878/895) Accurately ripped 14 | (880/895) Accurately ripped ==== Контрольная сумма отчёта EB1DA9C97E4BE94EE0518DEBD2FE097989406B5298C8D322E30CBAA7E0DCDFA7 ====
Дополнительная информация: Whitesnake (в переводе с англ. — «белая змея») — британская, затем американская рок-группа, играющая хард-рок с блюзовыми элементами, созданная в 1978 году Дэвидом Ковердэйлом, бывшим вокалистом Deep Purple. Время раздачи: В дневное время.

Всего файлов в раздаче: 11 
Scans\Scan 01.jpg2.80 MB
Scans\Scan 02.jpg8.47 MB
Scans\Scan 03.jpg7.09 MB
Scans\Scan 04.jpg8.59 MB
Scans\Scan 05.jpg2.27 MB
Scans\Scan 06.jpg4.89 MB
Scans\Scan 07.jpg2.48 MB
Scans\Scan 08.jpg3.57 MB
WHITESNAKE - ''Greatest Hits''.cue2.15 kB
WHITESNAKE - ''Greatest Hits''.flac477.06 MB
Показать все файлы

Похожие раздачи по запросу - Whitesnake
2024-01-21 magnet Whitesnake - Good To Be Bad (2008) FLAC 515.46 MB ↑ 0 ↓ 0
2024-01-17 magnet Whitesnake - Lovehunter (1979) / Saints An' Sinners (1982) (1999) FLAC 560.53 MB ↑ 0 ↓ 0
2024-01-17 magnet Whitesnake - Trouble (1978) / 1987 (1987) (1999) FLAC 555.66 MB ↑ 0 ↓ 0
2024-01-17 magnet Whitesnake - Ready An' Willing (1980) / Starkers In Tokyo (1997) (1999) FLAC 475.82 MB ↑ 0 ↓ 0

Комментарии


Зарегистрируйтесь чтобы добавить комментарий
Торрент клиент
byTorrent - программа для загрузки торрент-файлов.

Скачать byTorrent.exe (1,5 МБ)

Скачать byTorrent.zip (0,6 МБ)

Поддержи torrent.by
российских рублей
(300 российских рублей это 4$)

Обратная связь rss

End game ©