↑↓torrent.by
Поиск
Логин:  Регистрация
Пароль:

Общество снега / La sociedad de la nieve / Society of the Snow (2023) WEB-DLRip 720p от DoMiNo & селезень | P

download Скачать торрент-файл   magnet Магнитная ссылка Размер: 3.63 GB Добавлен: 2024-01-22 05:00
Пиры будут получены из сети DHT
Последний сидер был замечен сегодня в 01:04
Информация о фильме Название: Общество снега Оригинальное название: La sociedad de la nieve / Society of the Snow Год выхода: 2023 Жанр: Триллер, драма, биография Режиссер: Хуан Антонио Байона В ролях: Энцо Вогринчич, Агустин Парделья, Матиас Рекалт, Эстебан Кукуричка, Томас Вульф, Рафаэль Федерман, Саймон Хемпе, Эстебан Бильярди, Фернандо Контиджани Гарсия, Альфонсина Каррочио, Диего Вегецци, Фелипе Гонсалес Отано, Хуан Диего Эйреа, Энди Прусс, Пола Бальдини, Сантьяго Вака Нарваха, Хуан Карузо, Фелипе Рамузио, Рокко Поска, Агустин Беррути, Эмануэль Парга, Августин Делла Корте, Яир Саид, Рохелио Грасия О фильме: В 1972 году рейс 571 ВВС Уругвая, который был зафрахтован для перевозки команды по регби в Чили, потерпел крушение в самом сердце Анд. Только 29 из 45 пассажиров выжили в катастрофе. Оказавшись в ловушке в одной из самых враждебных и недоступных сред на планете, они вынуждены прибегать к крайним мерам, чтобы остаться в живых. Фильм был заявлен от Испании в категории "Лучший международный художественный фильм" на 96-ю премию "Оскар" в 2024 году. Страна: Испания, США, Уругвай, Чили Студия: Telecinco, Telecinco Cinema, Cimarrón Cine, Apaches Entertainment Продолжительность: 02:25:31 Перевод: Профессиональный (многоголосый, закадровый) | HDRezka Studio Субтитры: Русские (Forced, Full), английские (Full, SDH), испанские (Full, SDH) Файл Формат: Matroska Качество: WEB-DLRip 720p Видео: 1280x502 at 23.976 fps, x264@L4.1, ~2926 kbps Аудио 1: AC3, 2 ch, ~192 kbps - | Русский | Аудио 2: AC3, 6 ch, ~448 kbps - | Английский | Формат субтитров: softsub (SRT) ***Рип от: -=DoMiNo=-
[+] M/IGeneral Unique ID : 50352822319861301504986497582604166633 (0x25E199CFEE4CA2A893A6F5D082E725E9) Complete name : R:Society.of.the.Snow.2023.MVO.WEB-DLRip.720p.x264.seleZen.mkv Format : Matroska Format version : Version 4 File size : 3.63 GiB Duration : 2 h 25 min Overall bit rate : 3 568 kb/s Frame rate : 24.000 FPS Movie name : Society.of.the.Snow.2023.MVO.WEB-DLRip.720p.x264.seleZen Encoded date : 2024-01-21 17:12:50 UTC Writing application : mkvmerge v82.0 ('I'm The President') 64-bit Writing library : libebml v1.4.5 + libmatroska v1.7.1 Cover : Yes Attachments : cover.jpg / small_cover.jpg Video ID : 1 Format : AVC Format/Info : Advanced Video Codec Format profile : High@L4.1 Format settings : CABAC / 5 Ref Frames Format settings, CABAC : Yes Format settings, Reference : 5 frames Codec ID : V_MPEG4/ISO/AVC Duration : 2 h 25 min Bit rate : 2 926 kb/s Width : 1 280 pixels Height : 502 pixels Display aspect ratio : 2.550 Frame rate mode : Constant Frame rate : 24.000 FPS Color space : YUV Chroma subsampling : 4:2:0 Bit depth : 8 bits Scan type : Progressive Bits/(Pixel*Frame) : 0.190 Stream size : 2.97 GiB (82%) Title : -=DoMiNo=- Writing library : x264 core 164 r3173 -DoMiNo Encoding settings : cabac=1 / ref=5 / deblock=1:0:0 / analyse=0x3:0x133 / me=umh / subme=10 / psy=1 / psy_rd=1.00:0.00 / mixed_ref=1 / me_range=32 / chroma_me=1 / trellis=2 / 8x8dct=1 / cqm=0 / deadzone=21,11 / fast_pskip=0 / chroma_qp_offset=-2 / threads=16 / lookahead_threads=3 / sliced_threads=0 / nr=0 / decimate=0 / interlaced=0 / bluray_compat=0 / constrained_intra=0 / bframes=16 / b_pyramid=2 / b_adapt=2 / b_bias=0 / direct=1 / weightb=1 / open_gop=0 / weightp=2 / keyint=250 / keyint_min=24 / scenecut=40 / intra_refresh=0 / rc_lookahead=60 / rc=crf / mbtree=0 / crf=20.0 / qcomp=0.60 / qpmin=0 / qpmax=69 / qpstep=4 / vbv_maxrate=50000 / vbv_bufsize=62500 / crf_max=0.0 / nal_hrd=none / filler=0 / ip_ratio=1.24 / pb_ratio=1.30 / aq=1:1.00 Language : English Default : Yes Forced : No Audio #1 ID : 2 Format : AC-3 Format/Info : Audio Coding 3 Commercial name : Dolby Digital Codec ID : A_AC3 Duration : 2 h 25 min Bit rate mode : Constant Bit rate : 192 kb/s Channel(s) : 2 channels Channel layout : L R Sampling rate : 48.0 kHz Frame rate : 31.250 FPS (1536 SPF) Compression mode : Lossy Stream size : 200 MiB (5%) Title : MVO - HDRezka Studio Language : Russian Service kind : Complete Main Default : Yes Forced : No Audio #2 ID : 3 Format : AC-3 Format/Info : Audio Coding 3 Commercial name : Dolby Digital Codec ID : A_AC3 Duration : 2 h 25 min Bit rate mode : Constant Bit rate : 448 kb/s Channel(s) : 6 channels Channel layout : L R C LFE Ls Rs Sampling rate : 48.0 kHz Frame rate : 31.250 FPS (1536 SPF) Compression mode : Lossy Stream size : 466 MiB (13%) Title : English Language : English Service kind : Complete Main Default : No Forced : No Text #1 ID : 4 Format : UTF-8 Codec ID : S_TEXT/UTF8 Codec ID/Info : UTF-8 Plain Text Duration : 2 h 8 min Bit rate : 2 b/s Frame rate : 0.007 FPS Count of elements : 57 Stream size : 2.67 KiB (0%) Title : RU_Forced Language : Russian Default : No Forced : No Text #2 ID : 5 Format : UTF-8 Codec ID : S_TEXT/UTF8 Codec ID/Info : UTF-8 Plain Text Duration : 2 h 21 min Bit rate : 54 b/s Frame rate : 0.153 FPS Count of elements : 1301 Stream size : 56.4 KiB (0%) Title : Full Language : Russian Default : No Forced : No Text #3 ID : 6 Format : UTF-8 Codec ID : S_TEXT/UTF8 Codec ID/Info : UTF-8 Plain Text Duration : 2 h 21 min Bit rate : 34 b/s Frame rate : 0.143 FPS Count of elements : 1214 Stream size : 36.0 KiB (0%) Title : Full Language : English Default : No Forced : No Text #4 ID : 7 Format : UTF-8 Codec ID : S_TEXT/UTF8 Codec ID/Info : UTF-8 Plain Text Duration : 2 h 22 min Bit rate : 54 b/s Frame rate : 0.208 FPS Count of elements : 1779 Stream size : 56.6 KiB (0%) Title : SDH Language : English Default : No Forced : No Text #5 ID : 8 Format : UTF-8 Codec ID : S_TEXT/UTF8 Codec ID/Info : UTF-8 Plain Text Duration : 2 h 8 min Bit rate : 37 b/s Frame rate : 0.157 FPS Count of elements : 1215 Stream size : 35.3 KiB (0%) Title : Full Language : Spanish Default : No Forced : No Text #6 ID : 9 Format : UTF-8 Codec ID : S_TEXT/UTF8 Codec ID/Info : UTF-8 Plain Text Duration : 2 h 22 min Bit rate : 47 b/s Frame rate : 0.195 FPS Count of elements : 1668 Stream size : 49.9 KiB (0%) Title : SDH Language : Spanish Default : No Forced : No Menu 00:00:00.000 : en:Глава 01 00:05:50.000 : en:Глава 02 00:11:40.000 : en:Глава 03 00:17:30.000 : en:Глава 04 00:23:20.000 : en:Глава 05 00:29:10.000 : en:Глава 06 00:35:00.000 : en:Глава 07 00:40:50.000 : en:Глава 08 00:46:40.000 : en:Глава 09 00:52:30.000 : en:Глава 10 00:58:20.000 : en:Глава 11 01:04:10.000 : en:Глава 12 01:10:00.000 : en:Глава 13 01:15:50.000 : en:Глава 14 01:21:40.000 : en:Глава 15 01:27:30.000 : en:Глава 16 01:33:20.000 : en:Глава 17 01:39:10.000 : en:Глава 18 01:45:00.000 : en:Глава 19 01:50:50.000 : en:Глава 20 01:56:40.000 : en:Глава 21 02:02:30.000 : en:Глава 22 02:08:20.000 : en:Глава 23 02:14:10.000 : en:Глава 24 02:20:00.000 : en:Глава 25
Релиз: Присоединяйся к: Кликай на баннеры.

Всего файлов в раздаче: 1 
Society.of.the.Snow.2023.MVO.WEB-DLRip.720p.x264.seleZen.mkv3.63 GB

Похожие раздачи по запросу - Общество
2024-01-14 magnet Общество снега / La sociedad de la nieve / Society of the Snow (2023) WEB-DLRip-AVC | КПК | P | NewStudio 700.51 MB ↑ 0 ↓ 0
2024-01-11 magnet Снежное братство / Общество снега / La sociedad de la nieve / Society of the Snow (2023) WEBRip [H.265/1080p 10-bit] MVO 4.57 GB ↑ 0 ↓ 0
2024-01-11 magnet Снежное братство / Общество снега / La sociedad de la nieve / Society of the Snow (2023) WEB-DLRip-AVC | MVO 4.07 GB ↑ 0 ↓ 0
2024-01-09 magnet Снежное братство / Общество снега / La sociedad de la nieve / Society of the Snow (2023) WEB-DLRip от toxics | NewStudio, HDRezka Studio 2.18 GB ↑ 0 ↓ 0
2024-01-08 magnet Общество снега / La sociedad de la nieve / Society of the Snow (2023) WEB-DL 1080p от New-Team | NewStudio, HDRezka Studio 1К10.35 GB ↑ 0 ↓ 0
2024-01-07 magnet Снежное братство / Общество снега / La sociedad de la nieve (2023) WEB-DLRip-AVC от ExKinoRay | P | HDRezka Studio 1.07 GB ↑ 0 ↓ 0
2024-01-06 magnet Общество снега / La sociedad de la nieve / Society of the Snow (2023) WEB-DL 1080p от New-Team | HDRezka Studio 1К9.96 GB ↑ 0 ↓ 0

Комментарии


Зарегистрируйтесь чтобы добавить комментарий
Торрент клиент
byTorrent - программа для загрузки торрент-файлов.

Скачать byTorrent.exe (1,5 МБ)

Скачать byTorrent.zip (0,6 МБ)

Поддержи torrent.by
российских рублей
(300 российских рублей это 4$)

Обратная связь rss

End game ©