↑↓torrent.by
Поиск
Логин:  Регистрация
Пароль:

Черепашки-ниндзя: Погром мутантов / Teenage Mutant Ninja Turtles: Mutant (2023) WEB-DLRip 1080p | D | Локализованная версия | Flarrow Films

download Скачать торрент-файл   magnet Магнитная ссылка Размер: 6.38 GB Добавлен: 2024-01-22 05:00
Пиры будут получены из сети DHT
Последний сидер был замечен 2024-02-04 01:34
Информация о фильме Название: Черепашки-ниндзя: Погром мутантов Оригинальное название: Teenage Mutant Ninja Turtles: Mutant Mayhem Год выхода: 2023 Жанр: мультфильм, фантастика, фэнтези, боевик, комедия, приключения, семейный Режиссер: Джефф Роу, Кайлер Спирс В ролях: Мика Эбби, Шэймон Браун мл., Николас Канту, Брэйди Нун, Айо Эдебири, Майя Рудольф, Джеки Чан, Джанкарло Эспозито, Джон Сина, Сет Роген, Роуз Бирн, Натасия Деметриу, Пол Радд, Айс Кьюб, Post Malone, Кевин Истмэн О фильме: Четверо братьев-черепах, всю жизнь скрывавшихся от мира людей в канализациях Нью-Йорка и обучавшихся ниндзюцу, отправляются на поверхность и пытаются жить как нормальные подростки. С помощью своей новой подруги Эйприл О’Нил они выходят на след печально известного преступного синдиката и армии мутантов. Страна: США, Япония, Канада Продолжительность: 01:39:32 Перевод: Дублированный (неофициальный) | Flarrow Films Роли озвучивали: Никита Жбанов, Ахилл Намазов, Семён Евсиков, Евгений Леонов, Зарина Черткоева, Олег Куценко, Михаил Глушковский, Ольга Кузнецова, Александр Новиков, Иван Калинин, Андрей Маслов, Александр Скиданов, Михаил Белякович, Александра Остроухова, Ева Финкельштейн, Вероника Саркисова, Виталий Кашеваров и Максим Сергеев. Файл Формат:MKV Кодек: MPEG-4 AVC Качество: WEB-DLRip 1080p (Локализированный видеоряд) Видео: 1920х800, ~ 8 557 kb/s, 23.976, 8 bits Аудио: AC-3, 640 kb/s, 6 channels, 48.0 kHz Субтитры: Русские (отключаемые UTF-8) Сэмпл: скачать
[+] MediaInfo General Unique ID : 327308334626587193929906356534767631761 (0xF63D4AD23D13C0F9BFE8A17DA231BD91) Complete name : C:Flarrow FilmsTeenage.Mutant.Ninja.turtles.Mutant.Mayhem.2023.1080p.D.Flarrow.Films.mkv Format : Matroska Format version : Version 4 File size : 6.38 GiB Duration : 1 h 39 min Overall bit rate : 9 170 kb/s Encoded date : UTC 2024-01-21 16:23:12 Writing application : mkvmerge v45.0.0 ('Heaven in Pennies') 64-bit Writing library : libebml v1.3.10 + libmatroska v1.5.2 Video ID : 1 Format : AVC Format/Info : Advanced Video Codec Format profile : High@L4 Format settings : CABAC / 4 Ref Frames Format settings, CABAC : Yes Format settings, Reference : 4 frames Codec ID : V_MPEG4/ISO/AVC Duration : 1 h 39 min Bit rate : 8 557 kb/s Width : 1 920 pixels Height : 800 pixels Display aspect ratio : 2.40:1 Frame rate mode : Constant Frame rate : 23.976 (24000/1001) FPS Color space : YUV Chroma subsampling : 4:2:0 Bit depth : 8 bits Scan type : Progressive Bits/(Pixel*Frame) : 0.232 Stream size : 5.93 GiB (93%) Writing library : x264 core 161 Encoding settings : cabac=1 / ref=4 / deblock=1:1:1 / analyse=0x3:0x113 / me=hex / subme=4 / psy=1 / psy_rd=0.40:0.00 / mixed_ref=0 / me_range=16 / chroma_me=1 / trellis=1 / 8x8dct=1 / cqm=0 / deadzone=21,11 / fast_pskip=1 / chroma_qp_offset=0 / threads=12 / lookahead_threads=3 / sliced_threads=0 / nr=0 / decimate=1 / interlaced=0 / bluray_compat=0 / constrained_intra=0 / bframes=2 / b_pyramid=0 / b_adapt=1 / b_bias=0 / direct=1 / weightb=1 / open_gop=0 / weightp=1 / keyint=192 / keyint_min=19 / scenecut=40 / intra_refresh=0 / rc_lookahead=20 / rc=abr / mbtree=1 / bitrate=8557 / ratetol=1.0 / qcomp=0.60 / qpmin=0 / qpmax=69 / qpstep=4 / vbv_maxrate=11406 / vbv_bufsize=17113 / nal_hrd=none / filler=0 / ip_ratio=1.40 / aq=1:0.60 Default : Yes Forced : No Color range : Limited Color primaries : BT.709 Transfer characteristics : BT.709 Matrix coefficients : BT.709 Audio ID : 2 Format : AC-3 Format/Info : Audio Coding 3 Commercial name : Dolby Digital Codec ID : A_AC3 Duration : 1 h 39 min Bit rate mode : Constant Bit rate : 640 kb/s Channel(s) : 6 channels Channel layout : L R C LFE Ls Rs Sampling rate : 48.0 kHz Frame rate : 31.250 FPS (1536 SPF) Compression mode : Lossy Stream size : 456 MiB (7%) Service kind : Complete Main Default : Yes Forced : No Text ID : 3 Format : UTF-8 Codec ID : S_TEXT/UTF8 Codec ID/Info : UTF-8 Plain Text Duration : 1 h 33 min Bit rate : 105 b/s Frame rate : 0.285 FPS Count of elements : 1602 Stream size : 72.3 KiB (0%) Default : Yes Forced : No
[+] Скриншоты
Релиз от: Flarrow Films Примечание: Релиз без рекламы.

Всего файлов в раздаче: 1 
Teenage.Mutant.Ninja.turtles.Mutant.Mayhem.2023.1080p.D.Flarrow.Films.mkv6.38 GB

Похожие раздачи по запросу - Черепашки-ниндзя
2024-01-23 magnet Месть ниндзя / Revenge of the Ninja (1983) BDRip от HELLYWOOD 1.45 GB ↑ 0 ↓ 0
2023-11-20 magnet Черепашки-ниндзя: Погром мутантов / Teenage Mutant Ninja Turtles: Mutant Mayhem (2023) BDRip-AVC от DoMiNo & селезень | D | Videofilm Ltd. 1.46 GB ↑ 0 ↓ 0
2023-11-18 magnet Черепашки-ниндзя: Погром мутантов / Teenage Mutant Ninja Turtles: Mutant Mayhem (2023) BDRip 720p от DoMiNo & селезень | D, P 2К4.25 GB ↑ 0 ↓ 0
2023-09-04 magnet Черепашки-ниндзя: Погром мутантов / Teenage Mutant Ninja Turtles: Mutant Mayhem (2023) WEB-DL 1080p | P | Jaskier 6.42 GB ↑ 1 ↓ 0

Комментарии


Зарегистрируйтесь чтобы добавить комментарий
Торрент клиент
byTorrent - программа для загрузки торрент-файлов.

Скачать byTorrent.exe (1,5 МБ)

Скачать byTorrent.zip (0,6 МБ)

Поддержи torrent.by
российских рублей
(300 российских рублей это 4$)

Обратная связь rss

End game ©