↑↓torrent.by
Поиск
Логин:  Регистрация
Пароль:

Воздушное ограбление / Lift (2024) WEB-DLRip-AVC от ExKinoRay | P2

download Скачать торрент-файл   magnet Магнитная ссылка Размер: 745.16 MB Добавлен: 2024-01-22 05:00
Пиры будут получены из сети DHT
Последний сидер был замечен 2024-02-18 21:19
Информация о фильме Название: Воздушное ограбление Оригинальное название: Lift Год выпуска: 2024 Жанр: Боевик, триллер, драма, комедия, криминал Режиссер: Ф. Гэри Грей В ролях: Кевин Харт, Гугу Мбата-Роу, Винсент Д'Онофрио, Урсула Корберо, Билли Магнуссен, Жан Рено, Сэм Уортингтон, Бёрн Горман, Вайвек Калра, Джейкоб Баталон, Кэролайн Лонк, Пол Андерсон, Росс Андерсон, Жесс Лиоден, Алфредо Таварес, Ким Юнджи, Дэвид Прауд, Стефано Скалкотос, Мартина Авогадри, Эрол Исмаил, Расс Бэйн, Оли Грин, Тони О'Рурк, Морган Си Джонс, Феликс Гарсия Гуэр О фильме: Сайрус — профессиональный вор, вместе со своей международной командой проворачивающий самые невероятные и сложные аферы. Его бывшая девушка теперь работает в ФБР и могла бы с легкостью арестовать Сайруса, но к его удивлению… официально просит его совершить ограбление. Вместе они должны украсть золотые слитки на сумму 100 миллионов долларов прямиком из самолета, направляющегося из Лондона в Цюрих, находясь в полете. Только так они смогут предотвратить готовящуюся террористическую атаку. Страна: США Студия: 6th & Idaho Productions, Genre Picture , Hartbeat Productions Продолжительность: 01:46:43 Перевод: Профессиональный двухголосый | ViruseProject Файл Формат: MKV Качество: WEB-DLRip-AVC Видео: MPEG-4 AVC, 776x324, 892 Кбит/с Аудио: AAC-HE, 2 ch, 84 Кбит/с Субтитры: Русские (Forced, Full)
[+] MIОбщее Уникальный идентификатор : 175707717578875454371592966208836542239 (0x843013524C24964E0D541240D22F1F1F) Полное имя : D:MOVIESLift.2024.WEB-DLRip-AVC.ExKinoRay.mkv Формат : Matroska Версия формата : Version 4 Размер файла : 745 Мбайт Продолжительность : 1 ч. 46 м. Общий поток : 976 Кбит/сек Частота кадров : 24,000 кадра/сек Дата кодирования : 2024-01-21 16:56:33 UTC Программа кодирования : mkvmerge v46.0.0 ('No Deeper Escape') 64-bit Библиотека кодирования : libebml v1.3.10 + libmatroska v1.5.2 Видео Идентификатор : 1 Формат : AVC Формат/Информация : Advanced Video Codec Профиль формата : High@L4.1 Настройки формата : CABAC / 12 Ref Frames Параметр CABAC формата : Да Параметр RefFrames формата : 12 кадров Идентификатор кодека : V_MPEG4/ISO/AVC Продолжительность : 1 ч. 46 м. Битрейт : 892 Кбит/сек Ширина : 776 пикселей Высота : 324 пикселя Соотношение сторон : 2,40:1 Режим частоты кадров : Постоянный Частота кадров : 24,000 кадра/сек Цветовое пространство : YUV Субдискретизация насыщенности : 4:2:0 Битовая глубина : 8 бит Тип развёртки : Прогрессивная Бит/(Пиксели*Кадры) : 0.148 Размер потока : 680 Мбайт (91%) Библиотека кодирования : x264 core 164 r3107 a8b68eb Настройки программы : cabac=1 / ref=12 / deblock=1:-2:-2 / analyse=0x3:0x133 / me=umh / subme=10 / psy=1 / psy_rd=1.05:0.10 / mixed_ref=1 / me_range=32 / chroma_me=1 / trellis=2 / 8x8dct=1 / cqm=0 / deadzone=21,11 / fast_pskip=0 / chroma_qp_offset=-3 / threads=6 / lookahead_threads=1 / sliced_threads=0 / nr=0 / decimate=0 / interlaced=0 / bluray_compat=0 / constrained_intra=0 / bframes=11 / b_pyramid=2 / b_adapt=2 / b_bias=0 / direct=3 / weightb=1 / open_gop=0 / weightp=2 / keyint=240 / keyint_min=24 / scenecut=40 / intra_refresh=0 / rc=2pass / mbtree=0 / bitrate=892 / ratetol=1.0 / qcomp=0.60 / qpmin=0 / qpmax=69 / qpstep=4 / cplxblur=20.0 / qblur=0.5 / ip_ratio=1.40 / pb_ratio=1.30 / aq=3:1.00 Язык : English Default : Да Forced : Нет Цветовой диапазон : Limited Основные цвета : BT.709 Характеристики трансфера : BT.709 Коэффициенты матрицы : BT.709 Аудио Идентификатор : 2 Формат : AAC LC SBR Формат/Информация : Advanced Audio Codec Low Complexity with Spectral Band Replication Коммерческое название : HE-AAC Настройки формата : Explicit Идентификатор кодека : A_AAC-2 Продолжительность : 1 ч. 46 м. Битрейт : 84,0 Кбит/сек Каналы : 2 канала Channel layout : L R Частота : 48,0 КГц Частота кадров : 23,438 кадра/сек (2048 SPF) Метод сжатия : С потерями Задержка видео : 31 мс. Размер потока : 64,1 Мбайт (9%) Язык : Russian Default : Да Forced : Нет Текст #1 Идентификатор : 3 Формат : UTF-8 Идентификатор кодека : S_TEXT/UTF8 Идентификатор кодека/Информация : UTF-8 Plain Text Продолжительность : 1 ч. 30 м. Битрейт : 2 бит/сек Частота кадров : 0,009 кадр/сек Count of elements : 47 Размер потока : 1,45 Кбайт (0%) Заголовок : Forced Язык : Russian Default : Да Forced : Да Текст #2 Идентификатор : 4 Формат : UTF-8 Идентификатор кодека : S_TEXT/UTF8 Идентификатор кодека/Информация : UTF-8 Plain Text Продолжительность : 1 ч. 43 м. Битрейт : 90 бит/сек Частота кадров : 0,230 кадр/сек Count of elements : 1424 Размер потока : 68,2 Кбайт (0%) Заголовок : Full Язык : Russian Default : Нет Forced : Нет Меню 00:00:00.000 : en:Part 01 01:35:47.450 : en:Credits
[+] Скриншоты

Всего файлов в раздаче: 1 
Lift.2024.WEB-DLRip-AVC.ExKinoRay.mkv745.16 MB

Похожие раздачи по запросу - Воздушное
2024-02-10 magnet Воздушное ограбление / Lift (2024) WEB-DLRip-AVC от ExKinoRay | D 745.16 MB ↑ 0 ↓ 0
2024-02-09 magnet Воздушное ограбление / Lift (2024) WEB-DLRip 720p от DoMiNo & селезень | D, P2 2.89 GB ↑ 0 ↓ 0
2024-02-09 magnet Воздушное ограбление / Lift (2024) WEB-DL-HEVC 2160p | 4K | SDR | D 10.33 GB ↑ 0 ↓ 0
2024-02-09 magnet Воздушное ограбление / Lift (2024) WEB-DL 720p от ExKinoRay | D 2.35 GB ↑ 1 ↓ 0
2024-02-09 magnet Воздушное ограбление / Lift (2024) WEB-DLRip от MegaPeer | D | Red Head Sound 1.46 GB ↑ 0 ↓ 0
2024-02-09 magnet Воздушное ограбление / Lift (2024) WEB-DL 2160p | 4K | HDR | D | Condor Films Studio 19.20 GB ↑ 0 ↓ 0
2024-02-09 magnet Воздушное ограбление / Lift (2024) WEB-DL 1080p от Scarabey | D | Red Head Sound 4.69 GB ↑ 0 ↓ 0

Комментарии


Зарегистрируйтесь чтобы добавить комментарий
Торрент клиент
byTorrent - программа для загрузки торрент-файлов.

Скачать byTorrent.exe (1,5 МБ)

Скачать byTorrent.zip (0,6 МБ)

Поддержи torrent.by
российских рублей
(300 российских рублей это 4$)

Обратная связь rss

End game ©