↑↓torrent.by
Поиск
Логин:  Регистрация
Пароль:

Ты найдёшь меня в глубине бездны / Me encontrarás en lo profundo del abismo / Into The Abyss (2022) BDRip от New-Team | P | Jaskier

download Скачать торрент-файл   magnet Магнитная ссылка Размер: 1.47 GB Добавлен: 2024-01-22 05:00
Пиры будут получены из сети DHT
Последний сидер был замечен вчера в 17:22
Ты найдёшь меня в глубине бездны / Me encontrarás en lo profundo del abismo / Into The Abyss Год выпуска: 2022 Выпущено: Аргентина, Brainstorming Films Жанр: ужасы, фантастика, драма Режиссер: Матиас Риспау / Matías Rispau В ролях: Мартин Риспау, Герман Баудино, Чучо Фернандес, Демиан Саломон, Хорхе Хавьер Алагастино, Паула Браска О фильме: Блуждая среди заброшенных сооружений в поисках пищи и воды, Бэннон обнаруживает, что его окружает лишь угроза, исходящая от демонов, спустившихся с небес. В своем странствии по обреченным территориям, он вынужден сразиться с собственным разумом, прежде чем призраки прошлого настигнут его. В этом трудном путешествии ему приходит на помощь загадочный спутник из параллельного мира. Продолжительность: 01:44:08 Перевод: Профессиональный (многоголосый, закадровый) | Jaskier Субтитры: нет. Раздача от: Автор релиза: JNS82. Формат: AVI Качество: BDRip | Into.the.Abyss.2022.1080p.Blu-ray.Remux.AVC.DTS-HD.MA.5.1-HDT Видео: 704x400 (16:9), 23.976 fps, XviD MPEG-4 ~ 1622 kbps avg, 0.240 bit/pixel, build 73 Аудио: 48 kHz, AC3 Dolby Digital, 3/2 (L,C,R,l,r) + LFE ch, ~ 384 kbps | RUS |
[+] MediaInfoОбщее Полное имя : D:TorrentsInto.the.Abyss.2022.BDRip_от New-Team_by_JNS82.avi Формат : AVI Формат/Информация : Audio Video Interleave Размер файла : 1,47 Гбайт Продолжительность : 1 ч. 44 м. Общий поток : 2 015 Кбит/сек Программа кодирования : VirtualDubMod 1.5.10.2 (build 2540/release) Библиотека кодирования : VirtualDubMod build 2540/release Видео Идентификатор : 0 Формат : MPEG-4 Visual Профиль формата : Advanced Simple@L5 Настройки формата : BVOP1 / Custom Matrix Параметр BVOP формата : 1 Параметр QPel формата : Нет Параметр GMC формата : Без точки перехода Параметр матрицы формата : Выборочная Идентификатор кодека : XVID Идентификатор кодека/Подсказка : XviD Продолжительность : 1 ч. 44 м. Битрейт : 1 622 Кбит/сек Ширина : 704 пикселя Высота : 400 пикселей Соотношение сторон : 16:9 Частота кадров : 23,976 (24000/1001) кадра/сек Цветовое пространство : YUV Субдискретизация насыщенности : 4:2:0 Битовая глубина : 8 бит Тип развёртки : Прогрессивная Метод сжатия : С потерями Бит/(Пиксели*Кадры) : 0.240 Размер потока : 1,18 Гбайт (80%) Библиотека кодирования : XviD 73 Аудио Идентификатор : 1 Формат : AC-3 Формат/Информация : Audio Coding 3 Коммерческое название : Dolby Digital Идентификатор кодека : 2000 Продолжительность : 1 ч. 44 м. Вид битрейта : Постоянный Битрейт : 384 Кбит/сек Каналы : 6 каналов Channel layout : L R C LFE Ls Rs Частота : 48,0 КГц Частота кадров : 31,250 кадров/сек (1536 SPF) Метод сжатия : С потерями Размер потока : 286 Мбайт (19%) Выравнивание : Разделение по промежуткам Продолжительность промежутка : 42 мс. (1,00 видеокадр) Время предзагрузки промежутка : 500 мс. Service kind : Complete Main

Всего файлов в раздаче: 1 
Into.the.Abyss.2022.BDRip_от New-Team_by_JNS82.avi1.47 GB

Комментарии


Зарегистрируйтесь чтобы добавить комментарий
Торрент клиент
byTorrent - программа для загрузки торрент-файлов.

Скачать byTorrent.exe (1,5 МБ)

Скачать byTorrent.zip (0,6 МБ)

Поддержи torrent.by
российских рублей
(300 российских рублей это 4$)

Обратная связь rss

End game ©