↑↓torrent.by
Поиск
Логин:  Регистрация
Пароль:

60 минут / 60 Minuten (2024) WEB-DL 1080p от JNS82 | L2 | Zetflix

download Скачать торрент-файл   magnet Магнитная ссылка Размер: 3.69 GB Раздают: 2 Качают: 0 Добавлен: 2024-01-22 05:00
Пиры будут получены из сети DHT
Последний сидер был замечен сегодня в 07:47
60 минут / 60 Minuten / Sixty Minutes Год выпуска: 2024 Выпущено: Германия, Nocturna Productions, W&B Television, Netflix Deutschland Жанр: боевик, драма, спорт Режиссер: Оливер Кинле / Oliver Kienle В ролях: Эмилио Сакрая, Деннис Моен, Мари Мурум, Флориан Шмидтке, Пол Воллин, Аристо Луис, Морик Хейдо, Ален Блажевич, Лудгер Бёкельман О фильме: В отчаянной попытке сохранить родительские права боец смешанных единоборств пропускает важный поединок и спешит через весь Берлин на день рождения дочери. Продолжительность: 01:29:55 Перевод: Любительский (двухголосый, закадровый) | Zetflix Субтитры: Русские, английские Автор релиза: JNS82. Формат: MKV Качество: WEB-DL 1080p | NF Видео: MPEG-4 AVC, 5000 Кбит/с, 1920x1080 Аудио #1: AC3, 2 ch, 192 Кбит/с | RUS | Аудио #2: E-AC3 JOC, 6 ch, 768 Кбит/с | GER |
[+] MediaInfoОбщее Уникальный идентификатор : 251561468292897913556393014053296458864 (0xBD40F9F98A4A5864AFD489024548CC70) Полное имя : D:TorrentsSixty.Minutes.2024.1080p.NF.WEB-DL_от_JNS82.mkv Формат : Matroska Версия формата : Version 4 Размер файла : 3,69 Гбайт Продолжительность : 1 ч. 29 м. Режим общего битрейта : Переменный Общий поток : 5 873 Кбит/сек Название фильма : Sixty.Minutes.2024.1080p.NF.WEB-DL_от_JNS82 Дата кодирования : UTC 2024-01-21 18:18:04 Программа кодирования : mkvmerge v79.0 ('Funeral Pyres') 64-bit Библиотека кодирования : libebml v1.4.4 + libmatroska v1.7.1 Видео Идентификатор : 1 Формат : AVC Формат/Информация : Advanced Video Codec Профиль формата : Main@L4 Настройки формата : CABAC / 3 Ref Frames Параметр CABAC формата : Да Параметр RefFrames формата : 3 кадра Идентификатор кодека : V_MPEG4/ISO/AVC Продолжительность : 1 ч. 29 м. Вид битрейта : Переменный Битрейт : 5 000 Кбит/сек Максимальный битрейт : 7 500 Кбит/сек Ширина : 1 920 пикселей Высота : 1 080 пикселей Соотношение сторон : 16:9 Режим частоты кадров : Постоянный Частота кадров : 24,000 кадра/сек Цветовое пространство : YUV Субдискретизация насыщенности : 4:2:0 Битовая глубина : 8 бит Тип развёртки : Прогрессивная Бит/(Пиксели*Кадры) : 0.100 Размер потока : 3,08 Гбайт (84%) Библиотека кодирования : x264 core 148 r2727 7d026e8 Настройки программы : cabac=1 / ref=3 / deblock=1:0:0 / analyse=0x1:0x111 / me=umh / subme=10 / psy=1 / psy_rd=1.00:0.00 / mixed_ref=1 / me_range=24 / chroma_me=1 / trellis=2 / 8x8dct=0 / cqm=0 / deadzone=21,11 / fast_pskip=1 / chroma_qp_offset=-2 / threads=6 / lookahead_threads=1 / sliced_threads=0 / nr=0 / decimate=1 / interlaced=0 / bluray_compat=0 / stitchable=1 / constrained_intra=0 / bframes=2 / b_pyramid=0 / b_adapt=2 / b_bias=0 / direct=3 / weightb=1 / open_gop=0 / weightp=2 / keyint=240 / keyint_min=121 / scenecut=0 / intra_refresh=0 / rc_lookahead=48 / rc=2pass / mbtree=1 / bitrate=5000 / ratetol=1.0 / qcomp=0.50 / qpmin=6 / qpmax=51 / qpstep=4 / cplxblur=20.0 / qblur=0.5 / vbv_maxrate=7500 / vbv_bufsize=10000 / nal_hrd=vbr / filler=0 / ip_ratio=1.40 / aq=1:1.00 Default : Да Forced : Нет Аудио #1 Идентификатор : 2 Формат : AC-3 Формат/Информация : Audio Coding 3 Коммерческое название : Dolby Digital Идентификатор кодека : A_AC3 Продолжительность : 1 ч. 29 м. Вид битрейта : Постоянный Битрейт : 192 Кбит/сек Каналы : 2 канала Channel layout : L R Частота : 48,0 КГц Частота кадров : 31,250 кадров/сек (1536 SPF) Метод сжатия : С потерями Размер потока : 123 Мбайт (3%) Заголовок : DVO - L2 | Zetflix Язык : Russian Service kind : Complete Main Default : Да Forced : Нет Аудио #2 Идентификатор : 3 Формат : E-AC-3 JOC Формат/Информация : Enhanced AC-3 with Joint Object Coding Коммерческое название : Dolby Digital Plus with Dolby Atmos Идентификатор кодека : A_EAC3 Продолжительность : 1 ч. 29 м. Вид битрейта : Постоянный Битрейт : 768 Кбит/сек Каналы : 6 каналов Channel layout : L R C LFE Ls Rs Частота : 48,0 КГц Частота кадров : 31,250 кадров/сек (1536 SPF) Метод сжатия : С потерями Размер потока : 494 Мбайт (13%) Заголовок : Original Язык : German Service kind : Complete Main Default : Нет Forced : Нет Complexity index : 16 Number of dynamic objects : 15 Bed channel count : 1 канал Bed channel configuration : LFE Текст #1 Идентификатор : 4 Формат : UTF-8 Идентификатор кодека : S_TEXT/UTF8 Идентификатор кодека/Информация : UTF-8 Plain Text Продолжительность : 1 ч. 27 м. Битрейт : 60 бит/сек Count of elements : 847 Размер потока : 38,7 Кбайт (0%) Заголовок : Russian Язык : Russian Default : Нет Forced : Нет Текст #2 Идентификатор : 5 Формат : UTF-8 Идентификатор кодека : S_TEXT/UTF8 Идентификатор кодека/Информация : UTF-8 Plain Text Продолжительность : 1 ч. 23 м. Битрейт : 40 бит/сек Count of elements : 801 Размер потока : 24,5 Кбайт (0%) Заголовок : English Язык : English Default : Нет Forced : Нет Текст #3 Идентификатор : 6 Формат : UTF-8 Идентификатор кодека : S_TEXT/UTF8 Идентификатор кодека/Информация : UTF-8 Plain Text Продолжительность : 1 ч. 25 м. Битрейт : 64 бит/сек Count of elements : 1301 Размер потока : 40,3 Кбайт (0%) Заголовок : English (SDH) Язык : English Default : Нет Forced : Нет

Всего файлов в раздаче: 1 
Sixty.Minutes.2024.1080p.NF.WEB-DL_от_JNS82.mkv3.69 GB

Похожие раздачи по запросу - минут
2024-02-09 magnet Генри Элкайр - Строим тело. 10 минут в день и вы будете иметь тело мечты (2023) EPUB, PDF 10.89 MB ↑ 0 ↓ 0
2024-01-24 magnet 60 минут / 60 Minuten / Sixty Minutes (2024) WEB-DLRip-AVC от DoMiNo & селезень | P2 | ViruseProject 1.52 GB ↑ 0 ↓ 0
2024-01-24 magnet 60 минут / 60 Minuten / Sixty Minutes (2024) WEB-DL 1080p | ViruseProject 4.37 GB ↑ 0 ↓ 0
2024-01-23 magnet 60 минут / 60 Minuten (2024) WEB-DL 1080p от New-Team | P2 | ViruseProject 3.69 GB ↑ 0 ↓ 0
2024-01-21 magnet Парсонс Пол - Всё о космических путешествиях за 60 минут (2021) FB2 4.02 MB ↑ 0 ↓ 0
2024-01-19 magnet 60 минут / 60 Minuten (2024) WEB-DL 1080p от JNS82 | Sub 3.57 GB ↑ 0 ↓ 0
2023-12-24 magnet Сборник - 5 Минут До Конца Декабря (2023) МР3 420.04 MB ↑ 0 ↓ 0

Комментарии

gariix
Вчера смотрел на нетфликсе. Снято качественно, драки реалистичные, динамика фильма не дает сходить в туалет. Десятку поставить не могу потому, что десятку заслуживает "Чужие". Поэтому ставлю 8. ))


Зарегистрируйтесь чтобы добавить комментарий
Торрент клиент
byTorrent - программа для загрузки торрент-файлов.

Скачать byTorrent.exe (1,5 МБ)

Скачать byTorrent.zip (0,6 МБ)

Поддержи torrent.by
российских рублей
(300 российских рублей это 4$)

Обратная связь rss

End game ©