↑↓torrent.by
Поиск
Логин:  Регистрация
Пароль:

Зорро / Zorro [1 сезон] (2024) WEB-DL 720p | HDrezka Studio

download Скачать торрент-файл   magnet Магнитная ссылка Размер: 14.48 GB Добавлен: il68k 2024-01-22 09:17
Пиры будут получены из сети DHT
Последний сидер был замечен сегодня в 00:45
Информация о сериале Название: Зорро Оригинальное название: Zorro Год выхода: 2024 Жанр: боевик, триллер, приключения, мелодрама Режиссер: Хавьер Кинтас, Хорхе Сааведра, Хосе Луис Алегрия В ролях: Мигель Бернардо, Рената Нотни, Далия Чукоатль, Эмильяно Зурита, Андрес Алмейда, Родольфо Санчо, Луис Тосар, Франциско Рейс, Феле Мартинес, Пако Тоус и другие. О сериале: Лос-Анджелес, XIX век. Диего де ла Вега становится новым Зорро, но от всего лишь хочет выяснить, кто убил его отца, и предать убийц суду. Во время своего поиска Зорро раскрывает семейные тайны, которые навсегда меняют его судьбу, а также узнает, что значит быть героем. Страна: Испания Продолжительность: ~00:50:00 серия Перевод: Профессиональный (многоголосый, закадровый) HDrezka Studio Файл Кодек: MKV Качество: WEB-DL 720p Видео: AVC, 1280x544 (2, 35:1), 3049 kbps (0.175 b/px), 25.000 fps Аудио #1: AC3, 192 kbps (CBR), 48.0 KHz, 2 ch, Russian - HDRezka Studio Аудио #2: E-AC-3, 640 kbps (CBR), 48.0 KHz, 6 ch, Spanish Аудио #3: E-AC-3, 640 kbps (CBR), 48.0 KHz, 6 ch, English Субтитры: Русские (Forced), английские, испанские, португальские
[+] MediaInfoОбщее Уникальный идентификатор : 76060929519506903254999879670720760951 (0x3938CD5B6742629AB9C67BCC7D0A0C77) Полное имя : E:СЕРИАЛЫZorro.S01.720pZorro.S01E01.720p.mkv Формат : Matroska Версия формата : Version 4 Размер файла : 1, 81 Гбайт Продолжительность : 57 м. 23 с. Общий поток : 4 524 Кбит/сек Частота кадров : 25, 000 кадров/сек Дата кодирования : 2024-01-20 05:14:03 UTC Программа кодирования : mkvmerge v45.0.0 ('Heaven in Pennies') 64-bit Библиотека кодирования : libebml v1.3.10 + libmatroska v1.5.2 Видео Идентификатор : 1 Формат : AVC Формат/Информация : Advanced Video Codec Профиль формата : High@L3.1 Настройки формата : CABAC / 4 Ref Frames Параметр CABAC формата : Да Параметр RefFrames формата : 4 кадра Идентификатор кодека : V_MPEG4/ISO/AVC Продолжительность : 57 м. 23 с. Вид битрейта : Постоянный Битрейт : 3 049 Кбит/сек Номинальный битрейт : 6 000 Кбит/сек Ширина : 1 280 пикселей Высота : 544 пикселя Соотношение сторон : 2, 35:1 Соотношение сторон в оригинале : 2, 35:1 Режим частоты кадров : Постоянный Частота кадров : 25, 000 кадров/сек Цветовое пространство : YUV Субдискретизация насыщенности : 4:2:0 Битовая глубина : 8 бит Тип развёртки : Прогрессивная Бит/(Пиксели*Кадры) : 0.175 Размер потока : 1, 22 Гбайт (67%) Default : Да Forced : Нет Цветовой диапазон : Limited Основные цвета : BT.709 Характеристики трансфера : BT.709 Коэффициенты матрицы : BT.709 Аудио #1 Идентификатор : 2 Формат : AC-3 Формат/Информация : Audio Coding 3 Коммерческое название : Dolby Digital Идентификатор кодека : A_AC3 Продолжительность : 57 м. 23 с. Вид битрейта : Постоянный Битрейт : 192 Кбит/сек Каналы : 2 канала Channel layout : L R Частота : 48, 0 КГц Частота кадров : 31, 250 кадров/сек (1536 SPF) Метод сжатия : С потерями Размер потока : 78, 8 Мбайт (4%) Заголовок : HDR Язык : Russian Service kind : Complete Main Default : Да Forced : Нет Аудио #2 Идентификатор : 3 Формат : E-AC-3 Формат/Информация : Enhanced AC-3 Коммерческое название : Dolby Digital Plus Идентификатор кодека : A_EAC3 Продолжительность : 57 м. 23 с. Вид битрейта : Постоянный Битрейт : 640 Кбит/сек Каналы : 6 каналов Channel layout : L R C LFE Ls Rs Частота : 48, 0 КГц Частота кадров : 31, 250 кадров/сек (1536 SPF) Метод сжатия : С потерями Размер потока : 263 Мбайт (14%) Заголовок : Mexican Язык : Spanish Service kind : Complete Main Default : Нет Forced : Нет Аудио #3 Идентификатор : 4 Формат : E-AC-3 Формат/Информация : Enhanced AC-3 Коммерческое название : Dolby Digital Plus Идентификатор кодека : A_EAC3 Продолжительность : 57 м. 23 с. Вид битрейта : Постоянный Битрейт : 640 Кбит/сек Каналы : 6 каналов Channel layout : L R C LFE Ls Rs Частота : 48, 0 КГц Частота кадров : 31, 250 кадров/сек (1536 SPF) Метод сжатия : С потерями Размер потока : 263 Мбайт (14%) Язык : English Service kind : Complete Main Default : Нет Forced : Нет Текст #1 Идентификатор : 5 Формат : UTF-8 Идентификатор кодека : S_TEXT/UTF8 Идентификатор кодека/Информация : UTF-8 Plain Text Продолжительность : 55 м. 22 с. Битрейт : 1 бит/сек Частота кадров : 0, 003 кадр/сек Count of elements : 11 Размер потока : 423 байт (0%) Заголовок : fors Язык : Russian Default : Да Forced : Нет Текст #2 Идентификатор : 6 Формат : UTF-8 Идентификатор кодека : S_TEXT/UTF8 Идентификатор кодека/Информация : UTF-8 Plain Text Продолжительность : 54 м. 45 с. Битрейт : 35 бит/сек Частота кадров : 0, 141 кадр/сек Count of elements : 462 Размер потока : 14, 4 Кбайт (0%) Заголовок : Mexican Язык : Spanish Default : Нет Forced : Нет Текст #3 Идентификатор : 7 Формат : UTF-8 Идентификатор кодека : S_TEXT/UTF8 Идентификатор кодека/Информация : UTF-8 Plain Text Продолжительность : 55 м. 36 с. Битрейт : 44 бит/сек Частота кадров : 0, 204 кадр/сек Count of elements : 682 Размер потока : 18, 3 Кбайт (0%) Заголовок : Mexican (SDH) Язык : Spanish Default : Нет Forced : Нет Текст #4 Идентификатор : 8 Формат : UTF-8 Идентификатор кодека : S_TEXT/UTF8 Идентификатор кодека/Информация : UTF-8 Plain Text Продолжительность : 55 м. 22 с. Битрейт : 0 бит/сек Частота кадров : 0, 003 кадр/сек Count of elements : 10 Размер потока : 247 байт (0%) Заголовок : Forced Язык : English Default : Нет Forced : Нет Текст #5 Идентификатор : 9 Формат : UTF-8 Идентификатор кодека : S_TEXT/UTF8 Идентификатор кодека/Информация : UTF-8 Plain Text Продолжительность : 55 м. 22 с. Битрейт : 33 бит/сек Частота кадров : 0, 140 кадр/сек Count of elements : 464 Размер потока : 13, 7 Кбайт (0%) Язык : English Default : Нет Forced : Нет Текст #6 Идентификатор : 10 Формат : UTF-8 Идентификатор кодека : S_TEXT/UTF8 Идентификатор кодека/Информация : UTF-8 Plain Text Продолжительность : 55 м. 22 с. Битрейт : 32 бит/сек Частота кадров : 0, 136 кадр/сек Count of elements : 452 Размер потока : 13, 0 Кбайт (0%) Заголовок : Brazilian Язык : Portuguese Default : Нет Forced : Нет Меню 00:00:00.000 : en:Prime Video 00:00:06.000 : en:Studio Logo 00:00:11.000 : en:Chapter 03 00:03:42.000 : en:Chapter 04 00:08:42.000 : en:Chapter 05 00:10:00.000 : en:Opening Credits 00:10:35.000 : en:Title Sequence 00:10:40.000 : en:Chapter 08 00:11:50.000 : en:Chapter 09 00:14:55.000 : en:Chapter 10 00:18:50.000 : en:Chapter 11 00:20:57.000 : en:Chapter 12 00:24:47.000 : en:Chapter 13 00:26:23.000 : en:Chapter 14 00:32:40.000 : en:Chapter 15 00:34:54.000 : en:Chapter 16 00:40:13.000 : en:Chapter 17 00:43:10.000 : en:Chapter 18 00:43:59.000 : en:Chapter 19 00:47:17.000 : en:Chapter 20 00:52:48.000 : en:Chapter 21 00:55:42.000 : en:End Credits
[+] Скриншоты

Всего файлов в раздаче: 10 
Zorro.S01E01.720p.mkv1.81 GB
Zorro.S01E02.720p.mkv1.55 GB
Zorro.S01E03.720p.mkv1.34 GB
Zorro.S01E04.720p.mkv1.54 GB
Zorro.S01E05.720p.mkv1.23 GB
Zorro.S01E06.720p.mkv1.50 GB
Zorro.S01E07.720p.mkv1.49 GB
Zorro.S01E08.720p.mkv1.42 GB
Zorro.S01E09.720p.mkv1.30 GB
Zorro.S01E10.720p.mkv1.30 GB

Похожие раздачи по запросу - Зорро
2024-02-11 magnet Зорро / Zorro [S01-02] (1957–1959) DVDRip | D 1К17.75 GB ↑ 0 ↓ 0
2024-01-20 magnet Зорро / Zorro [S01] (2024) WEBRip от Kerob | L2 5.19 GB ↑ 1 ↓ 0

Комментарии


Зарегистрируйтесь чтобы добавить комментарий
Торрент клиент
byTorrent - программа для загрузки торрент-файлов.

Скачать byTorrent.exe (1,5 МБ)

Скачать byTorrent.zip (0,6 МБ)

Поддержи torrent.by
российских рублей
(300 российских рублей это 4$)

Обратная связь rss

End game ©