↑↓torrent.by
Поиск
Логин:  Регистрация
Пароль:

Мама мафия / Мафія Мама / Mafia Mamma (2023) BDRip 1080p | D | UKR

download Скачать торрент-файл   magnet Магнитная ссылка Размер: 11.78 GB Добавлен: 2024-01-22 17:00
Пиры будут получены из сети DHT
Последний сидер был замечен 2024-02-11 10:03
Информация о фильме Название: Мама мафия Оригинальное название: Mafia Mamma Год выхода: 2023 Жанр: боевик, комедия, криминал Режиссер: Кэтрин Хардвик В ролях: Тони Коллетт, Моника Беллуччи, Софиа Номвете, Эдуардо Скарпетта, Альфонсо Перуджини, Франческо Мастроянни, Джулио Корсо, Дора Романо, Джузеппе Дзено, Винченцо Пирротта О фильме: Простая американская домохозяйка Кристин попадает в водоворот опасностей и страстей, когда выясняется, что итальянский дедушка оставил ей в наследство…свою мафиозную империю. Под руководством советницы старого босса, Бьянки, неунывающей Кристин предстоит открыть в себе внутреннюю крестную мать и встать у руля семейного бизнеса, бросив вызов всем ожиданиям, включая свои собственные. Страна: Великобритания, Италия, США Студия: Cattleya, Cornerstone Films, Edver Films, Idea(L), Ingenious Film Partners, Lipsync, New Sparta Films, Vocab Films Продолжительность: 01:41:10 Перевод: Дублированный | Cinemaker (Украинский) Файл Кодек: x.264 Качество: BDRip 1080p Видео: AVC, 1920x1040 (1.85:1), 23.976 fps, 15,6 Mb/s Аудио 1: AC3, 48.0 kHz, 6 ch, 448 kb/s | UKR Аудио 2: AC3, 48.0 kHz, 6 ch, 640 kb/s | ENG Субтитры: английские (forced/hadrsub на итал. речь), английские (full, SDH) Трейлер
[+] MIGeneral Unique ID : 222691994296220561695981692664180255082 (0xA788EB034BBB11BF87F252AC482E296A) Complete name : Mafia.Mamma.(2023).BDRip.1080p.Ukr.Eng..mkv Format : Matroska Format version : Version 4 File size : 11.8 GiB Duration : 1 h 41 min Overall bit rate : 16.7 Mb/s Encoded date : UTC 2023-09-17 09:40:02 Writing application : mkvmerge v8.3.0 ('Over the Horizon') 64bit Writing library : libebml v1.3.1 + libmatroska v1.4.2 Video ID : 1 Format : AVC Format/Info : Advanced Video Codec Format profile : High@L4.1 Format settings : CABAC / 4 Ref Frames Format settings, CABAC : Yes Format settings, Reference frames : 4 frames Codec ID : V_MPEG4/ISO/AVC Duration : 1 h 41 min Bit rate : 15.6 Mb/s Width : 1 920 pixels Height : 1 040 pixels Display aspect ratio : 1.85:1 Frame rate mode : Constant Frame rate : 23.976 (24000/1001) FPS Color space : YUV Chroma subsampling : 4:2:0 Bit depth : 8 bits Scan type : Progressive Bits/(Pixel*Frame) : 0.325 Stream size : 11.0 GiB (93%) Writing library : x264 core 164 r3075+55M t_mod ~ Encoded by luvBB: JigSaw & droops16 Encoding settings : cabac=1 / ref=4 / deblock=1:-3:-3 / analyse=0x3:0x133 / me=umh / subme=10 / psy=1 / fade_compensate=0.00 / psy_rd=1.00:0.00 / mixed_ref=1 / me_range=32 / chroma_me=1 / trellis=2 / 8x8dct=1 / cqm=0 / deadzone=21,11 / fast_pskip=0 / chroma_qp_offset=-2 / threads=16 / lookahead_threads=2 / sliced_threads=0 / nr=0 / decimate=0 / interlaced=0 / bluray_compat=0 / constrained_intra=0 / fgo=0 / bframes=9 / b_pyramid=2 / b_adapt=2 / b_bias=0 / direct=3 / weightb=1 / open_gop=0 / weightp=2 / keyint=250 / keyint_min=23 / scenecut=40 / intra_refresh=0 / rc=crf / mbtree=0 / crf=16.5000 / qcomp=0.60 / qpmin=0:0:0 / qpmax=69:69:69 / qpstep=4 / ip_ratio=1.30 / pb_ratio=1.20 / aq=3:0.85 / aq-sensitivity=10.00 / aq-factor=1.00:1.00:1.00 / aq2=0 / aq3=0 Default : Yes Forced : No Audio #1 ID : 2 Format : AC-3 Format/Info : Audio Coding 3 Commercial name : Dolby Digital Codec ID : A_AC3 Duration : 1 h 41 min Bit rate mode : Constant Bit rate : 448 kb/s Channel(s) : 6 channels Channel layout : L R C LFE Ls Rs Sampling rate : 48.0 kHz Frame rate : 31.250 FPS (1536 SPF) Compression mode : Lossy Stream size : 324 MiB (3%) Title : DUB Language : Ukrainian Service kind : Complete Main Default : Yes Forced : No Audio #2 ID : 3 Format : AC-3 Format/Info : Audio Coding 3 Commercial name : Dolby Digital Codec ID : A_AC3 Duration : 1 h 41 min Bit rate mode : Constant Bit rate : 640 kb/s Channel(s) : 6 channels Channel layout : L R C LFE Ls Rs Sampling rate : 48.0 kHz Frame rate : 31.250 FPS (1536 SPF) Compression mode : Lossy Stream size : 463 MiB (4%) Title : Original Language : English Service kind : Complete Main Default : No Forced : No Text #1 ID : 4 Format : UTF-8 Codec ID : S_TEXT/UTF8 Codec ID/Info : UTF-8 Plain Text Duration : 1 h 33 min Bit rate : 66 b/s Count of elements : 1631 Stream size : 45.5 KiB (0%) Title : Full Language : English Default : No Forced : No Text #2 ID : 5 Format : UTF-8 Codec ID : S_TEXT/UTF8 Codec ID/Info : UTF-8 Plain Text Duration : 1 h 36 min Bit rate : 77 b/s Count of elements : 1936 Stream size : 55.0 KiB (0%) Title : SDH Language : English Default : No Forced : No Menu 00:00:00.000 : :Chapter 01 00:15:20.628 : :Chapter 02 00:27:07.543 : :Chapter 03 00:45:08.831 : :Chapter 04 00:57:41.625 : :Chapter 05 01:09:55.942 : :Chapter 06 01:20:24.778 : :Chapter 07 01:35:33.019 : :Chapter 08
[+] Скриншоты
16.01.24 Замена на BDRip

Всего файлов в раздаче: 1 
Mafia.Mamma.(2023).BDRip.1080p.Ukr.Eng.[Hurtom].mkv11.78 GB

Похожие раздачи по запросу - Мама
2024-02-06 magnet Мама не горюй (1997) WEB-DLRip 720p от New-Team 2.18 GB ↑ 0 ↓ 0
2024-02-06 magnet Мама не горюй (1997) DVDRip-AVC от New-Team 1.46 GB ↑ 0 ↓ 0
2024-01-31 magnet Мама всегда права [S01] (2023) WEB-DLRip от Generalfilm | КПК 740.05 MB ↑ 0 ↓ 0
2023-12-08 magnet Привет, мама (2022) WEB-DLRip от MegaPeer 1.46 GB ↑ 0 ↓ 0
2023-12-01 magnet Стой! Не то мама будет гадать [01-24 из 24] (2023) WEBRip от от Files-х 17.12 GB ↑ 0 ↓ 0
2023-11-24 magnet Мама будет против [S01] (2023) HDTV 1080i 2К21.55 GB ↑ 0 ↓ 0
2023-11-24 magnet Мама будет против [S01] (2023) WEB-DLRip-AVC от Files-х 3.83 GB ↑ 0 ↓ 0

Комментарии


Зарегистрируйтесь чтобы добавить комментарий
Торрент клиент
byTorrent - программа для загрузки торрент-файлов.

Скачать byTorrent.exe (1,5 МБ)

Скачать byTorrent.zip (0,6 МБ)

Поддержи torrent.by
российских рублей
(300 российских рублей это 4$)

Обратная связь rss

End game ©