↑↓torrent.by
Поиск
Логин:  Регистрация
Пароль:

Подрывник / The Engineer (2023) BDRip-AVC от DoMiNo & селезень | D

download Скачать торрент-файл   magnet Магнитная ссылка Размер: 1.46 GB Добавлен: 2024-01-22 17:00
Пиры будут получены из сети DHT
Последний сидер был замечен 2024-02-10 18:44
Информация о фильме Название: Подрывник Оригинальное название: The Engineer Год выхода: 2023 Жанр: боевик Режиссер: Дэнни А. Абекейзер В ролях: Эмиль Хирш, Дэнни А. Абекейзер, Цахи Алеви, Анхель Бунани, Дэн Мор, Ошри Коэн О фильме: В Израиле происходит серия террористических актов, ответственность за которые берет на себя некто по прозвищу Инженер. В одном из терактов погибает дочь сенатора США. Бывший агент Моссада Итан возглавляет секретную группу агентов и наемников, которая должна из-под земли достать неуловимого Инженера прежде, чем он совершит еще один террористический акт. Выпущено: США / 2B Films, Grindstone Entertainment Group Продолжительность: 01:32:55 Перевод: Профессиональный (дублированный) | Официальный Субтитры: Русские (Forced, Full-Al), английские Файл Формат: Matroska Качество: BDRip-AVC Видео: 1024x428 at 23.976 fps, x264@L4.1, ~1871 kbps Аудио: AC3, 6 ch, ~384 kbps - | Русский | Формат субтитров: softsub (SRT) ***Рип от: -=DoMiNo=-
[+] M/Ix264 : frame I:1146 Avg QP:16.02 size: 57201 x264 : frame P:26193 Avg QP:18.05 size: 22129 x264 : frame B:106340 Avg QP:20.04 size: 6182 General Unique ID : 296958704100162727663604509979239613135 (0xDF682A82134DE56233F9F317CE1D82CF) Complete name : I:The.Engineer.2023.DUB.BDRip.x264.seleZen.mkv Format : Matroska Format version : Version 4 File size : 1.46 GiB Duration : 1 h 32 min Overall bit rate : 2 255 kb/s Frame rate : 23.976 FPS Movie name : The.Engineer.2023.DUB.BDRip.x264.seleZen Encoded date : 2024-01-22 10:52:06 UTC Writing application : mkvmerge v82.0 ('I'm The President') 64-bit Writing library : libebml v1.4.5 + libmatroska v1.7.1 Cover : Yes Attachments : cover.jpg / small_cover.jpg Video ID : 1 Format : AVC Format/Info : Advanced Video Codec Format profile : High@L4.1 Format settings : CABAC / 12 Ref Frames Format settings, CABAC : Yes Format settings, Reference : 12 frames Codec ID : V_MPEG4/ISO/AVC Duration : 1 h 32 min Bit rate : 1 871 kb/s Width : 1 024 pixels Height : 428 pixels Display aspect ratio : 2.40:1 Frame rate mode : Constant Frame rate : 23.976 (24000/1001) FPS Color space : YUV Chroma subsampling : 4:2:0 Bit depth : 8 bits Scan type : Progressive Bits/(Pixel*Frame) : 0.178 Stream size : 1.21 GiB (83%) Title : -=DoMiNo=- Writing library : x264 core 164 r3173 -DoMiNo Encoding settings : cabac=1 / ref=12 / deblock=1:-2:-2 / analyse=0x3:0x133 / me=umh / subme=11 / psy=1 / psy_rd=1.02:0.03 / mixed_ref=1 / me_range=32 / chroma_me=1 / trellis=2 / 8x8dct=1 / cqm=0 / deadzone=21,11 / fast_pskip=0 / chroma_qp_offset=-3 / threads=17 / lookahead_threads=3 / sliced_threads=0 / nr=0 / decimate=0 / interlaced=0 / bluray_compat=0 / constrained_intra=0 / bframes=12 / b_pyramid=2 / b_adapt=2 / b_bias=0 / direct=3 / weightb=1 / open_gop=0 / weightp=2 / keyint=250 / keyint_min=23 / scenecut=40 / intra_refresh=0 / rc_lookahead=60 / rc=2pass / mbtree=0 / bitrate=1871 / ratetol=1.0 / qcomp=0.70 / qpmin=0 / qpmax=69 / qpstep=4 / cplxblur=20.0 / qblur=0.5 / vbv_maxrate=50000 / vbv_bufsize=62500 / nal_hrd=none / filler=0 / ip_ratio=1.20 / pb_ratio=1.30 / aq=3:0.80 Language : English Default : Yes Forced : No Color range : Limited Color primaries : BT.709 Transfer characteristics : BT.709 Matrix coefficients : BT.709 Audio ID : 2 Format : AC-3 Format/Info : Audio Coding 3 Commercial name : Dolby Digital Codec ID : A_AC3 Duration : 1 h 32 min Bit rate mode : Constant Bit rate : 384 kb/s Channel(s) : 6 channels Channel layout : L R C LFE Ls Rs Sampling rate : 48.0 kHz Frame rate : 31.250 FPS (1536 SPF) Compression mode : Lossy Stream size : 255 MiB (17%) Title : DUB AC3 Language : Russian Service kind : Complete Main Default : Yes Forced : Yes Text #1 ID : 3 Format : UTF-8 Codec ID : S_TEXT/UTF8 Codec ID/Info : UTF-8 Plain Text Duration : 45 min 57 s Bit rate : 7 b/s Frame rate : 0.019 FPS Count of elements : 52 Stream size : 2.63 KiB (0%) Title : RU_Forced Language : Russian Default : No Forced : No Text #2 ID : 4 Format : UTF-8 Codec ID : S_TEXT/UTF8 Codec ID/Info : UTF-8 Plain Text Duration : 1 h 28 min Bit rate : 75 b/s Frame rate : 0.257 FPS Count of elements : 1370 Stream size : 48.9 KiB (0%) Title : RU_Full (AI) Language : Russian Default : No Forced : No Text #3 ID : 5 Format : UTF-8 Codec ID : S_TEXT/UTF8 Codec ID/Info : UTF-8 Plain Text Duration : 1 h 28 min Bit rate : 54 b/s Frame rate : 0.235 FPS Count of elements : 1252 Stream size : 35.4 KiB (0%) Language : English Default : No Forced : No Menu 00:00:00.000 : Chapter 01 00:05:45.345 : Chapter 02 00:14:46.886 : Chapter 03 00:22:26.345 : Chapter 04 00:30:10.809 : Chapter 05 00:39:11.975 : Chapter 06 00:47:30.848 : Chapter 07 00:59:51.755 : Chapter 08 01:08:33.109 : Chapter 09 01:14:15.451 : Chapter 10 01:19:43.904 : Chapter 11 01:29:45.547 : Chapter 12
Релиз: Присоединяйся к: Кликай на баннеры.

Всего файлов в раздаче: 1 
The.Engineer.2023.DUB.BDRip.x264.seleZen.mkv1.46 GB

Похожие раздачи по запросу - Подрывник
2024-01-22 magnet Подрывник / The Engineer (2023) BDRemux 1080p от ELEKTRI4KA | D 17.70 GB ↑ 0 ↓ 0
2024-01-22 magnet Подрывник / The Engineer (2023) BDRip от ELEKTRI4KA | D 1.46 GB ↑ 0 ↓ 0
2024-01-22 magnet Подрывник / The Engineer (2023) BDRip 1080p от ELEKTRI4KA | D 8.41 GB ↑ 0 ↓ 0

Комментарии


Зарегистрируйтесь чтобы добавить комментарий
Торрент клиент
byTorrent - программа для загрузки торрент-файлов.

Скачать byTorrent.exe (1,5 МБ)

Скачать byTorrent.zip (0,6 МБ)

Поддержи torrent.by
российских рублей
(300 российских рублей это 4$)

Обратная связь rss

End game ©