↑↓torrent.by
Поиск
Логин:  Регистрация
Пароль:

Плоды страсти / Les fruits de la passion (1981) WEB-DLRip-AVC от ExKinoRay | A, L1

download Скачать торрент-файл   magnet Магнитная ссылка Размер: 2.09 GB Добавлен: 2024-01-22 17:00
Пиры будут получены из сети DHT
Последний сидер был замечен вчера в 23:19
Информация о фильме Название: Плоды страсти Оригинальное название: Les fruits de la passion Год выхода: 1981 Жанр: Драма, сюрреализм, эротика Режиссер: Сюдзи Тэраяма В ролях: Изабель Илье, Клаус Кински, Ариель Домбаль, Питер, Кэйко Нийтака, Саёко Ямагути, Хитоми Такахаси, Миюки Оно, Юка Камэбути, Кэнити Накамура О фильме: Гонконг 1920. Молодая британская девушка попадает в азиатский бордель. Подвергаясь сексуальному насилию, фетишизму со стороны клиентов, она обнаруживает много новых чувственных желаний в мире запретного секса... Фильм основан на романе Доминик Ори "История О", который рассказывает о женщине, по желанию своего возлюбленного превращенной во всеобщую рабыню в замке Руаси. Японский режиссер значительно переработал сюжет и сместил акценты. Страна: Франция, Япония Студия: Argos Films, Jinriki Hikoki Sha Продолжительность: 01:19:13 Перевод: Авторский одноголосый, любительский одноголосый Файл Формат: MKV Качество: WEB-DLRip-AVC Видео: MPEG-4 AVC, 996x576, 3200 Кбит/с Аудио #1: RUS, АС3, 2 ch, 192 Кбит/с | Авторский, Антон Алексеев | Аудио #2: RUS, АС3, 2 ch, 192 Кбит/с | Любительский, Олег Воротилин | Аудио #3: FRE, АС3, 2 ch, 192 Кбит/с | Оригинал | Субтитры: Русские
[+] MI x264 : frame I:668 Avg QP:17.26 size: 67212 x264 : frame P:27728 Avg QP:19.76 size: 28794 x264 : frame B:90446 Avg QP:21.12 size: 11692 Общее Уникальный идентификатор : 299468254105883037294947010988568384546 (0xE14B7CE04D82136B4CFF1A6668FA9422) Полное имя : D:MOVIESPlody_strasti.1981.WEB-DLRip-AVC.ExKinoRay.mkv Формат : Matroska Версия формата : Version 4 Размер файла : 2,09 Гбайт Продолжительность : 1 ч. 19 м. Общий поток : 3 777 Кбит/сек Дата кодирования : UTC 2022-05-22 05:14:41 Программа кодирования : mkvmerge v48.0.0 ('Fortress Around Your Heart') 64-bit Библиотека кодирования : libebml v1.4.0 + libmatroska v1.6.0 Видео Идентификатор : 1 Формат : AVC Формат/Информация : Advanced Video Codec Профиль формата : High@L4.1 Настройки формата : CABAC / 13 Ref Frames Параметр CABAC формата : Да Параметр RefFrames формата : 13 кадров Идентификатор кодека : V_MPEG4/ISO/AVC Продолжительность : 1 ч. 19 м. Битрейт : 3 200 Кбит/сек Ширина : 996 пикселей Высота : 576 пикселей Соотношение сторон : 1,729 Режим частоты кадров : Постоянный Частота кадров : 25,000 кадров/сек Цветовое пространство : YUV Субдискретизация насыщенности : 4:2:0 Битовая глубина : 8 бит Тип развёртки : Прогрессивная Бит/(Пиксели*Кадры) : 0.223 Размер потока : 1,77 Гбайт (85%) Библиотека кодирования : x264 core 164 r3081 19856cc Настройки программы : cabac=1 / ref=13 / deblock=1:-3:-3 / analyse=0x3:0x133 / me=umh / subme=10 / psy=1 / psy_rd=1.05:0.15 / mixed_ref=1 / me_range=32 / chroma_me=1 / trellis=2 / 8x8dct=1 / cqm=0 / deadzone=21,11 / fast_pskip=0 / chroma_qp_offset=-3 / threads=6 / lookahead_threads=1 / sliced_threads=0 / nr=0 / decimate=0 / interlaced=0 / bluray_compat=0 / constrained_intra=0 / bframes=10 / b_pyramid=2 / b_adapt=2 / b_bias=0 / direct=3 / weightb=1 / open_gop=0 / weightp=2 / keyint=250 / keyint_min=25 / scenecut=40 / intra_refresh=0 / rc=2pass / mbtree=0 / bitrate=3200 / ratetol=1.0 / qcomp=0.60 / qpmin=0 / qpmax=69 / qpstep=4 / cplxblur=20.0 / qblur=0.5 / ip_ratio=1.40 / pb_ratio=1.30 / aq=1:1.00 Язык : French Default : Да Forced : Нет Цветовой диапазон : Limited Основные цвета : BT.709 Характеристики трансфера : BT.709 Коэффициенты матрицы : BT.709 Аудио #1 Идентификатор : 2 Формат : AC-3 Формат/Информация : Audio Coding 3 Коммерческое название : Dolby Digital Идентификатор кодека : A_AC3 Продолжительность : 1 ч. 19 м. Вид битрейта : Постоянный Битрейт : 192 Кбит/сек Каналы : 2 канала Channel layout : L R Частота : 48,0 КГц Частота кадров : 31,250 кадров/сек (1536 SPF) Метод сжатия : С потерями Размер потока : 109 Мбайт (5%) Заголовок : Антон Алексеев Язык : Russian Service kind : Complete Main Default : Да Forced : Нет Аудио #2 Идентификатор : 3 Формат : AC-3 Формат/Информация : Audio Coding 3 Коммерческое название : Dolby Digital Идентификатор кодека : A_AC3 Продолжительность : 1 ч. 19 м. Вид битрейта : Постоянный Битрейт : 192 Кбит/сек Каналы : 2 канала Channel layout : L R Частота : 48,0 КГц Частота кадров : 31,250 кадров/сек (1536 SPF) Метод сжатия : С потерями Размер потока : 109 Мбайт (5%) Заголовок : Олег Воротилин Язык : Russian Service kind : Complete Main Default : Нет Forced : Нет Аудио #3 Идентификатор : 4 Формат : AC-3 Формат/Информация : Audio Coding 3 Коммерческое название : Dolby Digital Идентификатор кодека : A_AC3 Продолжительность : 1 ч. 19 м. Вид битрейта : Постоянный Битрейт : 192 Кбит/сек Каналы : 2 канала Channel layout : L R Частота : 48,0 КГц Частота кадров : 31,250 кадров/сек (1536 SPF) Метод сжатия : С потерями Размер потока : 109 Мбайт (5%) Язык : French Service kind : Complete Main Default : Нет Forced : Нет Текст Идентификатор : 5 Формат : UTF-8 Идентификатор кодека : S_TEXT/UTF8 Идентификатор кодека/Информация : UTF-8 Plain Text Продолжительность : 1 ч. 16 м. Битрейт : 49 бит/сек Count of elements : 534 Размер потока : 27,5 Кбайт (0%) Язык : Russian Default : Нет Forced : Нет
[+] Скриншоты

Всего файлов в раздаче: 1 
Plody_strasti.1981.WEB-DLRip-AVC.ExKinoRay.mkv2.09 GB

Похожие раздачи по запросу - Плоды
2024-01-23 magnet Плоды страсти / Les fruits de la passion / Fruits of Passion / Shanghai Ijin Shoukan: China Doll (1981) WEB-DLRip | А, L1 700.26 MB ↑ 0 ↓ 0

Комментарии

CHastik007
Клаус Кински с 5 лет насиловал свою старшую дочь, не понес никакого наказания при жизни. Приятного просмотра


Зарегистрируйтесь чтобы добавить комментарий
Торрент клиент
byTorrent - программа для загрузки торрент-файлов.

Скачать byTorrent.exe (1,5 МБ)

Скачать byTorrent.zip (0,6 МБ)

Поддержи torrent.by
российских рублей
(300 российских рублей это 4$)

Обратная связь rss

End game ©