↑↓torrent.by
Поиск
Логин:  Регистрация
Пароль:

Крайне опасен / Особо опасный человек / Wanted Man [2024, WEB-DLRip] DVO (ViruseProject)

download Скачать торрент-файл   magnet Магнитная ссылка Размер: 1.45 GB Добавлен: 2024-01-22 19:27
Пиры будут получены из сети DHT
Последний сидер был замечен 2024-02-07 10:16
Крайне опасен / Wanted Man Страна: США Жанр: боевик, триллер Год выпуска: 2024 Продолжительность: 01:25:19
Перевод: Любительский (двухголосый закадровый) | ViruseProject Субтитры: нет Оригинальная аудиодорожка: нет
Режиссер: Дольф Лундгрен / Dolph Lundgren

В ролях: Дольф Лундгрен, Келси Грэммер, Майкл Паре, Роджер Кросс, Аарон МакФерсон, Рокко Рейс, Джеймс Джозеф Пулидо, Даньела Сото Вель и др.

Описание: Немолодой детектив полиции Майк Йохансен использует в работе методы, которые часто вызывают возмущение. Устаревшие методики розыска, расистские высказывания и избиение подозреваемых много раз освещали в прессе, еще Йохансен любит бывать в злачных местах, и даже там он находит причины придраться к латиноамериканцам, индейцам и представителям других народностей. Как назло, руководство отправляет Йохансена в Мексику, чтобы там он отыскал важных свидетельниц – проституток Розу и Летицию. Операция сразу идет не по плану, и коп попадает в засаду, а потом приходит в себя в незнакомом доме. Оказывается, что Майка спас от нападения бандитов брат Розы, и это заставит его изменить свое отношение к латиноамериканцам, на пути к спасению своих жизней.

Качество видео: WEB-DLRip Формат видео: AVI Видео: 704x288 (2.44:1), 23.976 fps, XviD build 73 ~1982 kbps avg, 0.41 bit/pixel Аудио: 48 kHz, AC3 Dolby Digital, 3/2 (L,C,R,l,r) + LFE ch, ~448 kbps

[+] "MediaInfo"
Код:
Формат : AVI Формат/Информация : Audio Video Interleave Настройки формата : BitmapInfoHeader / WaveFormatEx Размер файла : 1,45 Гбайт Продолжительность : 1 ч. 25 м. Общий поток : 2 440 Кбит/сек Частота кадров : 23,976 кадра/сек Название фильма : Крайне опасен_2024_WEB-DLRip Программа кодирования : VirtualDubMod 1.5.10.2 (build 2542/release) Авторское право : порошков Видео Идентификатор : 0 Формат : MPEG-4 Visual Профиль формата : Advanced Simple@L5 Настройки формата : BVOP1 / Custom Matrix Параметр BVOP формата : 1 Параметр QPel формата : Нет Параметр GMC формата : Без точки перехода Параметр матрицы формата : Выборочная Идентификатор кодека : XVID Идентификатор кодека/Подсказка : XviD Продолжительность : 1 ч. 25 м. Битрейт : 1 983 Кбит/сек Ширина : 704 пикселя Высота : 288 пикселей Соотношение сторон : 2,40:1 Частота кадров : 23,976 (24000/1001) кадра/сек Цветовое пространство : YUV Субдискретизация насыщенности : 4:2:0 Битовая глубина : 8 бит Тип развёртки : Прогрессивная Метод сжатия : С потерями Бит/(Пиксели*Кадры) : 0.408 Размер потока : 1,18 Гбайт (81%) Библиотека кодирования : XviD 73 Аудио Идентификатор : 1 Формат : AC-3 Формат/Информация : Audio Coding 3 Коммерческое название : Dolby Digital Идентификатор кодека : 2000 Продолжительность : 1 ч. 25 м. Вид битрейта : Постоянный Битрейт : 448 Кбит/сек Каналы : 6 каналов Channel layout : L R C LFE Ls Rs Частота : 48,0 КГц Частота кадров : 31,250 кадров/сек (1536 SPF) Метод сжатия : С потерями Размер потока : 273 Мбайт (18%) Выравнивание : Разделение по промежуткам Продолжительность промежутка : 42 мс. (1,00 видеокадр) Время предзагрузки промежутка : 500 мс. Service kind : Complete Main
[+] "Скриншоты"
При появлении проф. озвучки раздачу обновлю!

Всего файлов в раздаче: 1 
Крайне опасен_2024_WEB-DLRip.avi1.45 GB

Похожие раздачи по запросу - Крайне
2024-02-10 magnet Крайне опасен / Wanted Man (2024) HDRip от ExKinoRay | D 747.55 MB ↑ 0 ↓ 0
2024-02-09 magnet Крайне опасен / Особо опасный человек / Wanted Man (2024) BDRip 720p от DoMiNo & селезень | D 2.81 GB ↑ 0 ↓ 0
2024-02-09 magnet Крайне опасен / Особо опасный человек / Wanted Man (2024) BDRip-AVC от DoMiNo & селезень | D, P2 2К1.61 GB ↑ 0 ↓ 0
2024-02-09 magnet Крайне опасен / Wanted Man (2024) BDRip 1080p от MegaPeer | D, P2 6.54 GB ↑ 0 ↓ 0
2024-02-09 magnet Крайне опасен / Wanted Man (2024) BDRip 720p от MegaPeer | D, P2 3.29 GB ↑ 0 ↓ 0
2024-02-09 magnet Крайне опасен / Wanted Man (2024) BDRip от MegaPeer | D 1.46 GB ↑ 0 ↓ 0
2024-02-02 magnet Крайне опасен / Особо опасный человек / Wanted Man (2024) WEB-DL 1080p от селезень | D 3.27 GB ↑ 0 ↓ 0

Комментарии


Зарегистрируйтесь чтобы добавить комментарий
Торрент клиент
byTorrent - программа для загрузки торрент-файлов.

Скачать byTorrent.exe (1,5 МБ)

Скачать byTorrent.zip (0,6 МБ)

Поддержи torrent.by
российских рублей
(300 российских рублей это 4$)

Обратная связь rss

End game ©