↑↓torrent.by
Поиск
Логин:  Регистрация
Пароль:

Армагеддон / Armageddon (1998) BDRip 720p | D, P, A

download Скачать торрент-файл   magnet Магнитная ссылка Размер: 11.94 GB Добавлен: 2024-01-23 11:00
Пиры будут получены из сети DHT
Последний сидер был замечен 2024-02-01 00:19
Армагеддон / Armageddon (1998) BDRip 720p от HELLYWOOD Информация о фильме: Год выпуска: 1998 Страна: США Слоган: «Во имя любви. Во имя чести. Во имя человечества» Жанр: фантастика, боевик, триллер, приключения Продолжительность: 02:30:50 Перевод: Профессиональный (полное дублирование) Blu-ray CEE Профессиональный (многоголосый, закадровый) Superbit/Карусель Профессиональный (многоголосый, закадровый) Киномания Профессиональный (многоголосый, закадровый) ОРТ Авторский (одноголосый, закадровый) А.Гаврилов Авторский (одноголосый, закадровый) Ю.Сербин Авторский (одноголосый, закадровый) С.Визгунов/VHS Украинский профессиональный (многоголосый, закадровый) Новый канал Украинский профессиональный (многоголосый, закадровый) ICTV Украинский профессиональный (двухголосый, закадровый) 1+1 Оригинальная звуковая дорожка Субтитры: Русские , Украинские , Английские Режиссёр: Майкл Бэй / Michael Bay В ролях: Брюс Уиллис, Бен Аффлек, Лив Тайлер, Уилл Пэттон, Билли Боб Торнтон, Стив Бушеми, Уильям Фихтнер, Оуэн Уилсон, Майкл Кларк Дункан, Петер Стормаре Описание: Тень гигантского астероида легла на Землю. До рокового столкновения остаются считанные дни. Наступает Армагеддон, трагический финал мировой истории. Чтобы предотвратить катастрофу, необходимо чудо - или совместные усилия лучших из лучших вместе с технологической мощью всего созданного человеком. Сможет ли горстка людей противостоять вселенской стихии?.. Релиз от: Автор рипа: serokuz74 Файл: Формат: MKV Качество: BDRip 720p (источник: Voland_ /Blu-ray /1080p) Видео: 1280x534 at 23.976 fps, x264@L4.1, 2pass, ~7040 kbps avg Аудио #1: 48 kHz, AC3, 3/2 (L,C,R,l,r) + LFE ch, ~640.00 kbps avg |DUB, Blu-ray CEE| Аудио #2: 48 kHz, AC3, 3/2 (L,C,R,l,r) + LFE ch, ~640.00 kbps avg |MVO, Superbit| Аудио #3: 48 kHz, AC3, 3/2 (L,C,R,l,r) + LFE ch, ~384.00 kbps avg |MVO, Киномания| Аудио #4: 48 kHz, AC3, 2/0 (L,R) ch, ~192.00 kbps avg |MVO, ОРТ| Аудио #5: 48 kHz, AC3, 3/2 (L,C,R,l,r) + LFE ch, ~640.00 kbps avg |AVO, А.Гаврилов| Аудио #6: 48 kHz, AC3, 3/2 (L,C,R,l,r) + LFE ch, ~384.00 kbps avg |AVO, Ю.Сербин| Аудио #7: 48 kHz, AC3, 2/0 (L,R) ch, ~192.00 kbps avg |AVO, С.Визгунов (VHS)| Аудио #8: 48 kHz, AC3, 2/0 (L,R) ch, ~192.00 kbps avg |UKR-MVO, Новый канал| Аудио #9: 48 kHz, AC3, 2/0 (L,R) ch, ~192.00 kbps avg |UKR-MVO, ICTV| Аудио #10: 48 kHz, AC3, 2/0 (L,R) ch, ~192.00 kbps avg |UKR-DVO, 1+1| Аудио #11: 48 kHz, AC3, 3/2 (L,C,R,l,r) + LFE ch, ~640.00 kbps avg |ENG|
[+] Знаете ли Вы, что... Лив Тайлер пробовалась на фильм два раза, но её взяли только после третьей попытки. Картина вышла на экраны в день рождения Лив Тайлер (ей исполнился 21 год). Музыкальную тему к фильму - «I Don’t Want to Miss a Thing» - исполнил отец Лив Тайлер, Стив, в составе команды Aerosmith. Эта песня в течение четырех недель удерживала первое место в Billboard Hot 100. Майкл Бэй исполнил эпизодическую роль в фильме - он сыграл одного из операторов телескопа Хаббл в НАСА.
[+] MediaInfo: General Unique ID : 224713618784447853613405872784460625444 (0xA90E44CBAD371F2A8150156F625A3624) Complete name : C:Armageddon.1998.BDRip.720p.7xRus.3xUkr.Eng.Subs.-HELLYWOOD.mkv Format : Matroska Format version : Version 2 File size : 11.9 GiB Duration : 2h 30mn Overall bit rate : 11.3 Mbps Movie name : Armageddon (1998) - http://hellywood.ru/ Encoded date : UTC 2013-10-11 19:50:14 Writing application : mkvmerge v6.4.1 ('Omega Point') built on Sep 16 2013 22:05:10 Writing library : libebml v1.3.0 + libmatroska v1.4.1 Video ID : 1 Format : AVC Format/Info : Advanced Video Codec Format profile : High@L4.1 Format settings, CABAC : Yes Format settings, ReFrames : 12 frames Codec ID : V_MPEG4/ISO/AVC Duration : 2h 30mn Bit rate : 7 040 Kbps Width : 1 280 pixels Height : 534 pixels Display aspect ratio : 2.40:1 Frame rate mode : Constant Frame rate : 23.976 fps Color space : YUV Chroma subsampling : 4:2:0 Bit depth : 8 bits Scan type : Progressive Bits/(Pixel*Frame) : 0.430 Stream size : 7.19 GiB (60%) Title : serokuz74 Writing library : x264 core 138 r2358kMod 9e941d1 Encoding settings : cabac=1 / ref=12 / deblock=1:-3:-3 / analyse=0x3:0x133 / me=umh / subme=11 / psy=1 / fade_compensate=0.00 / psy_rd=1.00:0.00 / mixed_ref=1 / me_range=48 / chroma_me=1 / trellis=2 / 8x8dct=1 / cqm=0 / deadzone=21,11 / fast_pskip=0 / chroma_qp_offset=-2 / threads=12 / lookahead_threads=2 / sliced_threads=0 / nr=0 / decimate=0 / interlaced=0 / bluray_compat=0 / constrained_intra=0 / bframes=11 / b_pyramid=2 / b_adapt=2 / b_bias=0 / direct=3 / weightb=1 / open_gop=0 / weightp=2 / keyint=250 / keyint_min=23 / scenecut=40 / intra_refresh=0 / rc_lookahead=60 / rc=2pass / mbtree=0 / bitrate=7040 / ratetol=1.0 / qcomp=0.75 / qpmin=0 / qpmax=69 / qpstep=4 / cplxblur=20.0 / qblur=0.5 / vbv_maxrate=50000 / vbv_bufsize=62500 / nal_hrd=none / ip_ratio=1.20 / pb_ratio=1.20 / aq=1:0.80 Language : English Default : Yes Forced : No Matrix coefficients : BT.709 Audio #1 ID : 2 Format : AC-3 Format/Info : Audio Coding 3 Mode extension : CM (complete main) Format settings, Endianness : Big Codec ID : A_AC3 Duration : 2h 30mn Bit rate mode : Constant Bit rate : 640 Kbps Channel(s) : 6 channels Channel positions : Front: L C R, Side: L R, LFE Sampling rate : 48.0 KHz Bit depth : 16 bits Compression mode : Lossy Stream size : 690 MiB (6%) Title : AC3 5.1 @ 640 kbps - DUB, Blu-ray CEE Language : Russian Default : Yes Forced : No Audio #2 ID : 3 Format : AC-3 Format/Info : Audio Coding 3 Mode extension : CM (complete main) Format settings, Endianness : Big Codec ID : A_AC3 Duration : 2h 30mn Bit rate mode : Constant Bit rate : 640 Kbps Channel(s) : 6 channels Channel positions : Front: L C R, Side: L R, LFE Sampling rate : 48.0 KHz Bit depth : 16 bits Compression mode : Lossy Stream size : 690 MiB (6%) Title : AC3 5.1 @ 640 kbps - MVO, Superbit Language : Russian Default : No Forced : No Audio #3 ID : 4 Format : AC-3 Format/Info : Audio Coding 3 Mode extension : CM (complete main) Format settings, Endianness : Big Codec ID : A_AC3 Duration : 2h 30mn Bit rate mode : Constant Bit rate : 384 Kbps Channel(s) : 6 channels Channel positions : Front: L C R, Side: L R, LFE Sampling rate : 48.0 KHz Bit depth : 16 bits Compression mode : Lossy Stream size : 414 MiB (3%) Title : AC3 5.1 @ 384 kbps - MVO, Kinomania Language : Russian Default : No Forced : No Audio #4 ID : 5 Format : AC-3 Format/Info : Audio Coding 3 Mode extension : CM (complete main) Format settings, Endianness : Big Codec ID : A_AC3 Duration : 2h 30mn Bit rate mode : Constant Bit rate : 192 Kbps Channel(s) : 2 channels Channel positions : Front: L R Sampling rate : 48.0 KHz Bit depth : 16 bits Compression mode : Lossy Stream size : 207 MiB (2%) Title : AC3 2.0 @ 192 kbps - MVO, ORT Language : Russian Default : No Forced : No Audio #5 ID : 6 Format : AC-3 Format/Info : Audio Coding 3 Mode extension : CM (complete main) Format settings, Endianness : Big Codec ID : A_AC3 Duration : 2h 30mn Bit rate mode : Constant Bit rate : 640 Kbps Channel(s) : 6 channels Channel positions : Front: L C R, Side: L R, LFE Sampling rate : 48.0 KHz Bit depth : 16 bits Compression mode : Lossy Stream size : 690 MiB (6%) Title : AC3 5.1 @ 640 kbps - AVO, Gavrilov Language : Russian Default : No Forced : No Audio #6 ID : 7 Format : AC-3 Format/Info : Audio Coding 3 Mode extension : CM (complete main) Format settings, Endianness : Big Codec ID : A_AC3 Duration : 2h 30mn Bit rate mode : Constant Bit rate : 384 Kbps Channel(s) : 6 channels Channel positions : Front: L C R, Side: L R, LFE Sampling rate : 48.0 KHz Bit depth : 16 bits Compression mode : Lossy Stream size : 414 MiB (3%) Title : AC3 5.1 @ 384 kbps - AVO, Serbin Language : Russian Default : No Forced : No Audio #7 ID : 8 Format : AC-3 Format/Info : Audio Coding 3 Mode extension : CM (complete main) Format settings, Endianness : Big Codec ID : A_AC3 Duration : 2h 30mn Bit rate mode : Constant Bit rate : 192 Kbps Channel(s) : 2 channels Channel positions : Front: L R Sampling rate : 48.0 KHz Bit depth : 16 bits Compression mode : Lossy Stream size : 207 MiB (2%) Title : AC3 2.0 @ 192 kbps - AVO, Vizgunov (VHS) Language : Russian Default : No Forced : No Audio #8 ID : 9 Format : AC-3 Format/Info : Audio Coding 3 Mode extension : CM (complete main) Format settings, Endianness : Big Codec ID : A_AC3 Duration : 2h 30mn Bit rate mode : Constant Bit rate : 192 Kbps Channel(s) : 2 channels Channel positions : Front: L R Sampling rate : 48.0 KHz Bit depth : 16 bits Compression mode : Lossy Stream size : 207 MiB (2%) Title : AC3 2.0 @ 192 kbps - MVO, Novyj kanal Language : Ukrainian Default : No Forced : No Audio #9 ID : 10 Format : AC-3 Format/Info : Audio Coding 3 Mode extension : CM (complete main) Format settings, Endianness : Big Codec ID : A_AC3 Duration : 2h 30mn Bit rate mode : Constant Bit rate : 192 Kbps Channel(s) : 2 channels Channel positions : Front: L R Sampling rate : 48.0 KHz Bit depth : 16 bits Compression mode : Lossy Stream size : 207 MiB (2%) Title : AC3 2.0 @ 192 kbps - MVO, ICTV Language : Ukrainian Default : No Forced : No Audio #10 ID : 11 Format : AC-3 Format/Info : Audio Coding 3 Mode extension : CM (complete main) Format settings, Endianness : Big Codec ID : A_AC3 Duration : 2h 30mn Bit rate mode : Constant Bit rate : 192 Kbps Channel(s) : 2 channels Channel positions : Front: L R Sampling rate : 48.0 KHz Bit depth : 16 bits Compression mode : Lossy Stream size : 207 MiB (2%) Title : AC3 2.0 @ 192 kbps - DVO, 1+1 Language : Ukrainian Default : No Forced : No Audio #11 ID : 12 Format : AC-3 Format/Info : Audio Coding 3 Mode extension : CM (complete main) Format settings, Endianness : Big Codec ID : A_AC3 Duration : 2h 30mn Bit rate mode : Constant Bit rate : 640 Kbps Channel(s) : 6 channels Channel positions : Front: L C R, Side: L R, LFE Sampling rate : 48.0 KHz Bit depth : 16 bits Compression mode : Lossy Stream size : 690 MiB (6%) Title : AC3 5.1 @ 640 kbps - Original Language : English Default : No Forced : No Text #1 ID : 13 Format : UTF-8 Codec ID : S_TEXT/UTF8 Codec ID/Info : UTF-8 Plain Text Title : Forced Language : Russian Default : Yes Forced : No Text #2 ID : 14 Format : UTF-8 Codec ID : S_TEXT/UTF8 Codec ID/Info : UTF-8 Plain Text Title : Full @ Blu-ray CEE Language : Russian Default : No Forced : No Text #3 ID : 15 Format : UTF-8 Codec ID : S_TEXT/UTF8 Codec ID/Info : UTF-8 Plain Text Title : Full Language : Russian Default : No Forced : No Text #4 ID : 16 Format : UTF-8 Codec ID : S_TEXT/UTF8 Codec ID/Info : UTF-8 Plain Text Title : Forced Language : Ukrainian Default : No Forced : No Text #5 ID : 17 Format : UTF-8 Codec ID : S_TEXT/UTF8 Codec ID/Info : UTF-8 Plain Text Title : Full Language : Ukrainian Default : No Forced : No Text #6 ID : 18 Format : UTF-8 Codec ID : S_TEXT/UTF8 Codec ID/Info : UTF-8 Plain Text Title : Full Language : English Default : No Forced : No Text #7 ID : 19 Format : UTF-8 Codec ID : S_TEXT/UTF8 Codec ID/Info : UTF-8 Plain Text Title : Full @ SDH Language : English Default : No Forced : No Menu 00:00:00.000 : en:Program Start / Opening Credits 00:06:21.256 : en:Nyc Hit Hard 00:11:56.299 : en:Mett Harry Stamper 00:23:14.602 : en:Nasa Briefing 00:28:47.059 : en:Building the Team 00:35:30.587 : en:The Physicals 00:39:57.520 : en:Training Begins 00:45:55.836 : en:Grace and a.J. 00:48:40.709 : en:Underwater Simulation 00:51:19.535 : en:A Day Off 00:56:26.925 : en:Shanghai's Surprised 00:59:10.839 : en:Launch Day 01:07:15.323 : en:The Countdown 01:11:16.647 : en:Rendezvous with Russians 01:21:02.816 : en:Slingshot in Space 01:24:10.629 : en:Independence Lost 01:32:42.682 : en:Freedom Good to Go 01:41:15.194 : en:Secondary Protocol 01:51:56.084 : en:Jumping the Canyon 01:55:56.158 : en:Rockhound Loses It 01:59:27.535 : en:Chaos on Earth 02:00:37.272 : en:A.J. to the Rescue 02:05:21.431 : en:Rock Storm 02:08:14.562 : en:Drawing Straws 02:12:50.838 : en:Harry Says Goodbye 02:15:00.342 : en:"Harry, You the Man!" 02:23:56.044 : en:End Credits
[+] x264 log:x264 : frame I:2101 Avg QP:16.24 size: 94920 x264 : frame P:54824 Avg QP:17.70 size: 53606 x264 : frame B:160062 Avg QP:19.37 size: 30151 x264 : consecutive B-frames: 4.7% 5.0% 10.8% 25.0% 16.0% 28.3% 4.7% 2.0% 1.3% 0.9% 0.7% 0.6% x264 : mb I I16..4: 6.0% 79.8% 14.3% x264 : mb P I16..4: 2.4% 25.9% 2.0% P16..4: 24.0% 30.6% 11.3% 1.3% 0.1% skip: 2.2% x264 : mb B I16..4: 0.5% 5.1% 0.3% B16..8: 36.5% 26.4% 5.8% direct:10.9% skip:14.6% L0:44.6% L1:39.8% BI:15.6% x264 : 8x8 transform intra:85.7% inter:63.0% x264 : direct mvs spatial:98.8% temporal:1.2% x264 : coded y,uvDC,uvAC intra: 86.6% 94.7% 89.0% inter: 49.9% 59.8% 38.3% x264 : i16 v,h,dc,p: 70% 7% 5% 18% x264 : i8 v,h,dc,ddl,ddr,vr,hd,vl,hu: 9% 6% 8% 10% 14% 13% 13% 12% 13% x264 : i4 v,h,dc,ddl,ddr,vr,hd,vl,hu: 13% 6% 6% 9% 15% 14% 13% 11% 13% x264 : i8c dc,h,v,p: 55% 14% 11% 19% x264 : Weighted P-Frames: Y:10.1% UV:7.4% x264 : ref P L0: 44.9% 5.4% 17.6% 9.1% 6.5% 4.8% 3.7% 2.3% 1.8% 1.5% 1.2% 1.0% 0.2% 0.0% x264 : ref B L0: 66.1% 14.9% 7.1% 3.8% 2.6% 1.9% 1.5% 0.9% 0.7% 0.4% 0.1% x264 : ref B L1: 91.5% 8.5%
[+] Скриншоты:

Всего файлов в раздаче: 1 
Armageddon.1998.BDRip.720p.7xRus.3xUkr.Eng.Subs.-HELLYWOOD.mkv11.94 GB

Похожие раздачи по запросу - Армагеддон
2024-02-11 magnet Армагеддон / Armageddon (1998) BDRip 1080p | D 2К11.55 GB ↑ 0 ↓ 0

Комментарии

r-pappa
В этом фильме пафос выши крыши зашкаливает.


Зарегистрируйтесь чтобы добавить комментарий
Торрент клиент
byTorrent - программа для загрузки торрент-файлов.

Скачать byTorrent.exe (1,5 МБ)

Скачать byTorrent.zip (0,6 МБ)

Поддержи torrent.by
российских рублей
(300 российских рублей это 4$)

Обратная связь rss

End game ©