↑↓torrent.by
Поиск
Логин:  Регистрация
Пароль:

Черный квадрат (1992) WEB-DLRip от New-Team

download Скачать торрент-файл   magnet Магнитная ссылка Размер: 1.46 GB Добавлен: 2024-01-23 17:00
Пиры будут получены из сети DHT
Последний сидер был замечен 2024-02-18 00:10
Страна: Россия Производство: FTM Entertainment Ltd., Gernica, Студия Горького, Шанс, Холдниг Южный Регион Жанр: криминал, детектив Год выпуска: 1992 Продолжительность: 01:55:04 Перевод: не требуется Оригинальная аудиодорожка: русский Cубтитры: нет Режиссер: Юрий Мороз В ролях: Дмитрий Харатьян, Виталий Соломин, Елена Яковлева, Василий Лановой, Татьяна Кравченко, Армен Джигарханян, Эммануил Виторган, Алла Балтер, Дарья Мороз, Владимир Талашко... Подробнее об актерах Описание: Группа оперативников занимается расследованием, на первый взгляд, бытового убийства. Следователь Александр Турецкий понимает, что нити дела ведут в высшие эшелоны военного руководства нашей страны, и каждый следующий шаг может стать для сыщиков последним. Но оперативники, рискуя жизнью, продолжают свою работу… Исходник: WEB-DL 1080p Тип релиза: WEB-DLRip Контейнер: AVI Видео: 720x480 (3:2), 24,000 кадра/сек, XviD 73 ~ 1610 кбит/сек, 0.183 бит/пиксель Аудио: 48 кГц, Dolby Digital AC3 2.0, 192 кбит/сек Раздача от:
[+] MediaInfo Общее Полное имя : Черный квадрат.1992.BDRip__by_AVP_Studio.avi Формат : AVI Формат/Информация : Audio Video Interleave Настройки формата : BitmapInfoHeader / WaveFormatEx Размер файла : 1,46 Гбайт Продолжительность : 1 ч. 59 м. Общий поток : 1 748 Кбит/сек Частота кадров : 24,000 кадра/сек Программа кодирования : VirtualDubMod 1.5.10.3 | www.virtualdub-fr.org || (build 2550/release) Библиотека кодирования : VirtualDubMod build 2550/release Видео Идентификатор : 0 Формат : MPEG-4 Visual Профиль формата : Advanced Simple@L5 Настройки формата : BVOP1 / Custom Matrix Параметр BVOP формата : 1 Параметр QPel формата : Нет Параметр GMC формата : Без точки перехода Параметр матрицы формата : Выборочная Идентификатор кодека : XVID Идентификатор кодека/Подсказка : XviD Продолжительность : 1 ч. 59 м. Битрейт : 1 546 Кбит/сек Ширина : 720 пикселей Высота : 480 пикселей Соотношение сторон : 3:2 Частота кадров : 24,000 кадра/сек Цветовое пространство : YUV Субдискретизация насыщенности : 4:2:0 Битовая глубина : 8 бит Тип развёртки : Прогрессивная Метод сжатия : С потерями Бит/(Пиксели*Кадры) : 0.186 Размер потока : 1,29 Гбайт (88%) Библиотека кодирования : XviD 73 Аудио Идентификатор : 1 Формат : AC-3 Формат/Информация : Audio Coding 3 Коммерческое название : Dolby Digital Идентификатор кодека : 2000 Продолжительность : 1 ч. 59 м. Вид битрейта : Постоянный Битрейт : 192 Кбит/сек Каналы : 2 канала Channel layout : L R Частота : 48,0 КГц Частота кадров : 31,250 кадров/сек (1536 SPF) Метод сжатия : С потерями Размер потока : 164 Мбайт (11%) Выравнивание : Разделение по промежуткам Продолжительность промежутка : 42 мс. (1,00 видеокадр) Время предзагрузки промежутка : 500 мс
[+] Скриншоты

Всего файлов в раздаче: 1 
Черный квадрат.1992.BDRip_[New-team]_by_AVP_Studio.avi1.46 GB

Похожие раздачи по запросу - Черный
2024-01-16 magnet Черный шум / Black Noise (2023) WEB-DL 1080p от селезень | D 2.49 GB ↑ 0 ↓ 0
2024-01-16 magnet Черный шум / Black Noise (2023) WEB-DLRip-AVC от New-Team | D 1.37 GB ↑ 0 ↓ 0
2024-01-09 magnet Черный Дождь / Black Rain (1989) BDRip 1080p | P, A 1К12.60 GB ↑ 0 ↓ 0
2023-12-30 magnet Шляхов Андрей - Черный крест. 13 страшных медицинских историй (2019) MP3 550.88 MB ↑ 0 ↓ 0
2023-12-19 magnet Черный бархат / Velluto nero (1976) BDRip-AVC от ExKinoRay | L1 1К2.46 GB ↑ 0 ↓ 0
2023-12-17 magnet Babooshka - Чёрный список (2023) MP3 1К125.08 MB ↑ 0 ↓ 0
2023-11-20 magnet Алексей Доронин - Чёрный день [8 книг] (2021-2023) МР3 5.40 GB ↑ 0 ↓ 0

Комментарии


Зарегистрируйтесь чтобы добавить комментарий
Торрент клиент
byTorrent - программа для загрузки торрент-файлов.

Скачать byTorrent.exe (1,5 МБ)

Скачать byTorrent.zip (0,6 МБ)

Поддержи torrent.by
российских рублей
(300 российских рублей это 4$)

Обратная связь rss

End game ©