↑↓torrent.by
Поиск
Логин:  Регистрация
Пароль:

Потомок / Наследник / The Childe / Gwigongja / Gwi-gong-ja (2023) HDRip от ExKinoRay | P

download Скачать торрент-файл   magnet Магнитная ссылка Размер: 750.24 MB Добавлен: 2024-01-23 17:00
Пиры будут получены из сети DHT
Последний сидер был замечен 2024-02-20 19:28
Информация о фильме Название: Наследник / Потомок Оригинальное название: Gwigongja / The Childe Год выхода: 2023 Жанр: боевик, триллер, драма, криминал Режиссер: Пак Джон-хун В ролях: Ким Сон-хо, Кан Тхэ-джу, Ким Ган-у, Ко А-ра, Квон Хёк-хён, Джастин Джон Харви О фильме: Молодой боксёр Марко Хан — так называемый копино, корейско-филиппинских кровей — всю жизнь прожил на Филиппинах и никогда не видел отца-корейца. Его мать тяжело больна, поэтому, пытаясь накопить на лечение, парень хватается за любые возможности заработка и разыскивает корейских родственников. Однажды на него выходят адвокаты, утверждающие, что его богатый папа наконец-то нашёл потерянную кровиночку и жаждет встречи. Марко летит в Корею, но уже в самолёте парня начинает запугивать странный тип, называющий себя его другом. Страна: Южная Корея Студия: Next Entertainment World, Goldmoon Film Продолжительность: 01:58:19 Перевод: Профессиональный многоголосый - TVShows Файл Кодек: XviD Качество: HDRip Видео: 688x288 (2.39:1), 23.976 fps, XviD build 67 ~746 kbps avg, 0.16 bit/pixel Звук: 48 kHz, MP3, 2 ch, 128 kbps avg Субтитры: Отсутствуют
[+] MediaInfoGeneral Complete name : D:Gwigongja.2023.HDRip.by.ExKinoRay & Shkiper.avi Format : AVI Format/Info : Audio Video Interleave Format settings : BitmapInfoHeader / WaveFormatEx File size : 750 MiB Duration : 1 h 58 min Overall bit rate : 886 kb/s Frame rate : 23.976 FPS Movie name : Gwigongja.2023.HDRip.by.ExKinoRay & Shkiper Writing application : Lavf58.29.100 Video ID : 0 Format : MPEG-4 Visual Format profile : Advanced Simple@L5 Format settings : BVOP1 Format settings, BVOP : 1 Format settings, QPel : No Format settings, GMC : No warppoints Format settings, Matrix : Default (H.263) Codec ID : XVID Codec ID/Hint : XviD Duration : 1 h 58 min Bit rate : 746 kb/s Width : 688 pixels Height : 288 pixels Display aspect ratio : 2.40:1 Frame rate : 23.976 (24000/1001) FPS Original frame rate : 23.976 (23976/1000) FPS Color space : YUV Chroma subsampling : 4:2:0 Bit depth : 8 bits Scan type : Progressive Compression mode : Lossy Bits/(Pixel*Frame) : 0.157 Stream size : 631 MiB (84%) Writing library : XviD 67 Audio ID : 1 Format : MPEG Audio Format version : Version 1 Format profile : Layer 3 Format settings : Joint stereo / MS Stereo Codec ID : 55 Codec ID/Hint : MP3 Duration : 1 h 58 min Bit rate mode : Constant Bit rate : 128 kb/s Channel(s) : 2 channels Sampling rate : 48.0 kHz Compression mode : Lossy Stream size : 108 MiB (14%) Alignment : Aligned on interleaves Interleave, duration : 24 ms (0.58 video frame) Title : TVShows Writing library : LAME3.100
[+] Скриншоты
Релиз от: Рип изготовил:

Всего файлов в раздаче: 1 
Gwigongja.2023.HDRip.by.ExKinoRay & Shkiper.avi750.24 MB

Похожие раздачи по запросу - Потомок
2024-01-24 magnet Потомок / Наследник / The Childe / Gwigongja / Gwi-gong-ja (2023) BDRip 1080p от Scarabey | P 16.13 GB ↑ 0 ↓ 0

Комментарии


Зарегистрируйтесь чтобы добавить комментарий
Торрент клиент
byTorrent - программа для загрузки торрент-файлов.

Скачать byTorrent.exe (1,5 МБ)

Скачать byTorrent.zip (0,6 МБ)

Поддержи torrent.by
российских рублей
(300 российских рублей это 4$)

Обратная связь rss

End game ©