↑↓torrent.by
Поиск
Логин:  Регистрация
Пароль:

Вонка / Wonka (2023) WEB-DLRip-AVC | D | Bravo Records Georgia

download Скачать торрент-файл   magnet Магнитная ссылка Размер: 738.43 MB Добавлен: 2024-01-23 17:00
Пиры будут получены из сети DHT
Последний сидер был замечен 2024-02-07 06:57
Информация о фильме Название: Вонка Оригинальное название: Wonka Год выхода: 2023 Жанр: Мюзикл, фэнтези, комедия, приключения, семейный Режиссер: Пол Кинг В ролях: Тимоти Шаламе, Gustave Die, Мюррэй МакАртур, Пол Дж. Рэймонд, Берти Каплан, Изи Сатти, Кобна Холдбрук-Смит, Матильда Такер, Том Дэвис, Оливия Колман Роли дублировали: Даниил Постников, Георгий Бегоян, Ярослава Николаева, Теона Дольникова, Григорий Лайков, Станислав Шапкин, Савва Самодуров, Дмитрий Тихонов, Александра Филатова, Георгий Вардиашвили, Маргарита Корш, Владимир Новосардов, Серго Кения, София Габелия, Дмитрий Бужинский, Влада Анисимова, Катя Хейфец, Яна Дели, Игорь Попов, Егор Рыбак, Изабелла Богданова, Максим Некрасов, Полина Калач, Александра Шкарина, Андрей Бибиков, Тимур Аитов, Диана Нерсесова О фильме: Задолго до того, как мальчик Чарли вытянул свой счастливый билет и познакомился с удивительным владельцем не менее удивительной шоколадной фабрики, Вилли Вонка был молодым фантазером, великим изобретателем, волшебником и непревзойденным изготовителем шоколада, доступного всем и каждому. Однажды он знакомится с представителем племени пигмеев умпа-лумпа и узнает о существовании страны Лумпаландии, полной опасных хищников и самых экзотических вкусов. Следуя за своей мечтой, Вонка приступает к строительству грандиозной фабрики шоколада, равной которой не будет во всем мире.«Вонка» (2023) — фэнтезийный мюзикл с Тимоти Шаламе в роли эксцентричного шоколатье Вилли Вонки из знаменитой повести Роальда Даля «Чарли и шоколадная фабрика». Страна: США, Великобритания, Канада Студия: Warner Bros. Продолжительность: 01:56:13 Перевод: Дублированный | Bravo Records Georgia Файл Формат: Matroska Качество: WEB-DLRip-AVC Видео: 688x288 at 23.976 fps, x264@L2.1, ~758 kbps Аудио: MP3, 2 ch, ~128 kbps Субтитры: нет
[+] MediaInfo:Общее Уникальный идентификатор: 186375836719999594440644812386298863886 (0x8C36AE34429C55328DC2CBF7123DA10E) Формат: Matroska Версия формата: Version 2 Размер файла: 738 Мбайт Продолжительность: 1 ч. 56 м. Общий поток: 884 Кбит/сек Частота кадров: 23, 976 кадра/сек Дата кодирования: 2024-01-22 16:08:19 UTC Программа кодирования: mkvmerge v6.1.0 ('Old Devil') built on Mar 4 2013 09:10:42 Библиотека кодирования: libebml v1.3.0 + libmatroska v1.4.0 Видео Идентификатор: 1 Формат: AVC Формат/Информация: Advanced Video Codec Профиль формата: High@L2.1 Настройки формата: CABAC / 4 Ref Frames Параметр CABAC формата: Да Параметр RefFrames формата: 4 кадра Идентификатор кодека: V_MPEG4/ISO/AVC Продолжительность: 1 ч. 56 м. Битрейт: 758 Кбит/сек Ширина: 688 пикселей Высота: 288 пикселей Соотношение сторон: 2, 40:1 Режим частоты кадров: Постоянный Частота кадров: 23, 976 (23976/1000) кадра/сек Цветовое пространство: YUV Субдискретизация насыщенности: 4:2:0 Битовая глубина: 8 бит Тип развёртки: Прогрессивная Бит/(Пиксели*Кадры): 0.160 Размер потока: 617 Мбайт (84%) Библиотека кодирования: x264 core 130 r2273 b3065e6 Настройки программы: cabac=1 / ref=3 / deblock=1:0:0 / analyse=0x3:0 / me=dia / subme=1 / psy=1 / psy_rd=1.00:0.00 / mixed_ref=0 / me_range=16 / chroma_me=1 / trellis=1 / 8x8dct=1 / cqm=0 / deadzone=21, 11 / fast_pskip=1 / chroma_qp_offset=0 / threads=6 / lookahead_threads=1 / sliced_threads=0 / nr=0 / decimate=1 / interlaced=0 / bluray_compat=0 / constrained_intra=0 / bframes=3 / b_pyramid=2 / b_adapt=1 / b_bias=0 / direct=3 / weightb=1 / open_gop=0 / weightp=2 / keyint=250 / keyint_min=23 / scenecut=40 / intra_refresh=0 / rc_lookahead=40 / rc=2pass / mbtree=1 / bitrate=758 / ratetol=1.0 / qcomp=0.60 / qpmin=0 / qpmax=69 / qpstep=4 / cplxblur=20.0 / qblur=0.5 / ip_ratio=1.40 / aq=1:1.00 Default: Да Forced: Нет Аудио Идентификатор: 2 Формат: MPEG Audio Версия формата: Version 1 Профиль формата: Layer 3 Идентификатор кодека: A_MPEG/L3 Идентификатор кодека/Подсказка: MP3 Продолжительность: 1 ч. 56 м. Вид битрейта: Постоянный Битрейт: 128 Кбит/сек Каналы: 2 канала Частота: 48, 0 КГц Частота кадров: 41, 667 кадра/сек (1152 SPF) Метод сжатия: С потерями Размер потока: 107 Мбайт (14%) Библиотека кодирования: LAME3.99r Настройки программы: -m s -V 4 -q 2 -lowpass 17 -b 128 Default: Да Forced: Нет
[+] Скриншоты

Всего файлов в раздаче: 1 
Вонка.mkv738.43 MB

Похожие раздачи по запросу - Вонка
2024-02-25 magnet Вонка / Wonka (2023) BDRip 1080p от Generalfilm | D 10.99 GB ↑ 0 ↓ 0
2024-02-25 magnet Вонка / Wonka (2023) BDRemux 1080p | D | UKR 24.61 GB ↑ 0 ↓ 0
2024-02-25 magnet Вонка / Wonka (2023) BDRip 1080p | D | UKR 1К7.71 GB ↑ 0 ↓ 0
2024-02-24 magnet Вонка / Wonka (2023) BDRip от MegaPeer | D 1.46 GB ↑ 0 ↓ 0
2024-02-24 magnet Вонка / Wonka (2023) BDRemux 1080p от селезень | D 24.40 GB ↑ 0 ↓ 0
2024-02-22 magnet Вонка / Wonka (2023) HDRip-AVC от DoMiNo & селезень | D 2.05 GB ↑ 0 ↓ 0
2024-02-22 magnet Вонка / Wonka (2023) UHD BDRemux 2160p от селезень | 4K | HDR | Dolby Vision Profile 8 | D 61.39 GB ↑ 0 ↓ 0

Комментарии


Зарегистрируйтесь чтобы добавить комментарий
Торрент клиент
byTorrent - программа для загрузки торрент-файлов.

Скачать byTorrent.exe (1,5 МБ)

Скачать byTorrent.zip (0,6 МБ)

Поддержи torrent.by
российских рублей
(300 российских рублей это 4$)

Обратная связь rss

End game ©