↑↓torrent.by
Поиск
Логин:  Регистрация
Пароль:

Следующий гол - победный / Next Goal Wins (2023) WEB-DLRip от New-Team | P | Jaskier

download Скачать торрент-файл   magnet Магнитная ссылка Размер: 1.46 GB Добавлен: 2024-01-23 17:00
Пиры будут получены из сети DHT
Последний сидер был замечен 2024-02-24 13:35
Следующий гол - победный / Next Goal Wins Год выпуска: 2023 Выпущено: Великобритания, США, Archer's Mark, Imaginarium Productions, Piki Films Жанр: Драма, комедия, спорт Режиссер: Тайка Вайтити / Taika Waititi В ролях: Майкл Фассбендер, Оскар Кайтли, Дэвид Фейн, Рэйчел Хаус, Бела Коале, Тайка Вайтити, Уилл Арнетт, Элизабет Мосс, Ули Латукефу О фильме: Футбольный тренер Томас Ронген в начале 2000-х приехал в Американское Самоа, чтобы помочь подготовить местную команду к отборочному циклу чемпионата мира. Продолжительность: 01:43:53 Перевод: Профессиональный (многоголосый, закадровый) | Jaskier | Tnx.KinoPub Субтитры: Русские (full (Stirlooo)), английские Раздача от: Автор релиза: JNS82. Формат: AVI Качество: WEB-DLRip Видео: 704x352 (2,000), 23.976 fps, XviD MPEG-4 ~ 1621 kbps avg, 0.273 bit/pixel, build 74 Аудио: 48 kHz, AC3 Dolby Digital, 3/2 (L,C,R,l,r) + LFE ch, ~ 384 kbps | RUS |
[+] MediaInfoОбщее Полное имя : D:TorrentsNext.Goal.Wins.2023.WEB-DLRip_от New-Team_by_JNS82Next.Goal.Wins.2023.WEB-DLRip_от New-Team_by_JNS82.avi Формат : AVI Формат/Информация : Audio Video Interleave Размер файла : 1,46 Гбайт Продолжительность : 1 ч. 43 м. Общий поток : 2 014 Кбит/сек Программа кодирования : VirtualDubMod 1.5.10.2 (build 2540/release) Библиотека кодирования : VirtualDubMod build 2540/release Видео Идентификатор : 0 Формат : MPEG-4 Visual Профиль формата : Advanced Simple@L5 Настройки формата : BVOP1 / Custom Matrix Параметр BVOP формата : 1 Параметр QPel формата : Нет Параметр GMC формата : Без точки перехода Параметр матрицы формата : Выборочная Идентификатор кодека : XVID Идентификатор кодека/Подсказка : XviD Продолжительность : 1 ч. 43 м. Битрейт : 1 621 Кбит/сек Ширина : 704 пикселя Высота : 352 пикселя Соотношение сторон : 2,000 Частота кадров : 23,976 (24000/1001) кадра/сек Цветовое пространство : YUV Субдискретизация насыщенности : 4:2:0 Битовая глубина : 8 бит Тип развёртки : Прогрессивная Метод сжатия : С потерями Бит/(Пиксели*Кадры) : 0.273 Размер потока : 1,18 Гбайт (80%) Библиотека кодирования : XviD 74 Аудио Идентификатор : 1 Формат : AC-3 Формат/Информация : Audio Coding 3 Коммерческое название : Dolby Digital Идентификатор кодека : 2000 Продолжительность : 1 ч. 43 м. Вид битрейта : Постоянный Битрейт : 384 Кбит/сек Каналы : 6 каналов Channel layout : L R C LFE Ls Rs Частота : 48,0 КГц Частота кадров : 31,250 кадров/сек (1536 SPF) Метод сжатия : С потерями Размер потока : 285 Мбайт (19%) Выравнивание : Разделение по промежуткам Продолжительность промежутка : 42 мс. (1,00 видеокадр) Время предзагрузки промежутка : 500 мс. Service kind : Complete Main

Всего файлов в раздаче: 3 
Next.Goal.Wins.2023.WEB-DLRip_от New-Team_by_JNS82.avi1.46 GB
Next.Goal.Wins.2023.WEB-DLRip_от New-Team_by_JNS82_[eng].srt130.26 kB
Next.Goal.Wins.2023.WEB-DLRip_от New-Team_by_JNS82_[rus].srt158.39 kB

Похожие раздачи по запросу - Следующий
2024-02-24 magnet Следующий гол - победный / Next Goal Wins (2023) BDRip от MegaPeer | P | Jaskier 1.46 GB ↑ 0 ↓ 0
2024-02-24 magnet Следующий гол - победный / Next Goal Wins (2023) BDRip 1080p от ExKinoRay | P 11.13 GB ↑ 0 ↓ 0
2024-01-23 magnet Следующий гол - победный / Next Goal Wins (2023) WEB-DL 1080p от New-Team | P | Jaskier 7.29 GB ↑ 0 ↓ 0

Комментарии


Зарегистрируйтесь чтобы добавить комментарий
Торрент клиент
byTorrent - программа для загрузки торрент-файлов.

Скачать byTorrent.exe (1,5 МБ)

Скачать byTorrent.zip (0,6 МБ)

Поддержи torrent.by
российских рублей
(300 российских рублей это 4$)

Обратная связь rss

End game ©