↑↓torrent.by
Поиск
Логин:  Регистрация
Пароль:

Следующий гол - победный / Next Goal Wins (2023) WEB-DL 1080p от New-Team | P | Jaskier

download Скачать торрент-файл   magnet Магнитная ссылка Размер: 7.29 GB Добавлен: 2024-01-23 17:00
Пиры будут получены из сети DHT
Последний сидер был замечен 2024-02-24 22:07
Следующий гол - победный / Next Goal Wins Год выпуска: 2023 Выпущено: Великобритания, США, Archer's Mark, Imaginarium Productions, Piki Films Жанр: Драма, комедия, спорт Режиссер: Тайка Вайтити / Taika Waititi В ролях: Майкл Фассбендер, Оскар Кайтли, Дэвид Фейн, Рэйчел Хаус, Бела Коале, Тайка Вайтити, Уилл Арнетт, Элизабет Мосс, Ули Латукефу О фильме: Футбольный тренер Томас Ронген в начале 2000-х приехал в Американское Самоа, чтобы помочь подготовить местную команду к отборочному циклу чемпионата мира. Продолжительность: 01:43:53 Перевод: Профессиональный (многоголосый, закадровый) | Jaskier | Tnx.KinoPub Субтитры: Русские (full (Stirlooo)), английские Раздача от: Автор релиза: JNS82. Формат: MKV Качество: WEB-DL 1080p | AMZN Видео: MPEG-4 AVC, 9023 Кбит/с, 1920x960 Аудио #1: AC3, 6 ch, 384 Кбит/с | RUS | Аудио #2: E-AC3, 6 ch, 640 Кбит/с | ENG |
[+] MediaInfoОбщее Уникальный идентификатор : 234498438953270612156823833622969442024 (0xB06AC1AD359F269C311CAD0BE08DDEE8) Полное имя : D:TorrentsNext.Goal.Wins.2023.1080p.AMZN_от New-Team.mkv Формат : Matroska Версия формата : Version 4 Размер файла : 7,29 Гбайт Продолжительность : 1 ч. 43 м. Общий поток : 10,0 Мбит/сек Название фильма : Next.Goal.Wins.2023.1080p.AMZN_от New-Team Дата кодирования : UTC 2024-01-23 09:09:14 Программа кодирования : mkvmerge v79.0 ('Funeral Pyres') 64-bit Библиотека кодирования : libebml v1.4.4 + libmatroska v1.7.1 Видео Идентификатор : 1 Формат : AVC Формат/Информация : Advanced Video Codec Профиль формата : High@L4 Настройки формата : CABAC / 4 Ref Frames Параметр CABAC формата : Да Параметр RefFrames формата : 4 кадра Идентификатор кодека : V_MPEG4/ISO/AVC Продолжительность : 1 ч. 43 м. Вид битрейта : Постоянный Битрейт : 9 023 Кбит/сек Номинальный битрейт : 10 000 Кбит/сек Ширина : 1 920 пикселей Высота : 960 пикселей Соотношение сторон : 2,000 Режим частоты кадров : Постоянный Частота кадров : 23,976 (24000/1001) кадра/сек Цветовое пространство : YUV Субдискретизация насыщенности : 4:2:0 Битовая глубина : 8 бит Тип развёртки : Прогрессивная Бит/(Пиксели*Кадры) : 0.204 Размер потока : 6,55 Гбайт (90%) Язык : English Default : Да Forced : Нет Цветовой диапазон : Limited Основные цвета : BT.709 Характеристики трансфера : BT.709 Коэффициенты матрицы : BT.709 Аудио #1 Идентификатор : 2 Формат : AC-3 Формат/Информация : Audio Coding 3 Коммерческое название : Dolby Digital Идентификатор кодека : A_AC3 Продолжительность : 1 ч. 43 м. Вид битрейта : Постоянный Битрейт : 384 Кбит/сек Каналы : 6 каналов Channel layout : L R C LFE Ls Rs Частота : 48,0 КГц Частота кадров : 31,250 кадров/сек (1536 SPF) Метод сжатия : С потерями Размер потока : 285 Мбайт (4%) Заголовок : MVO - Jaskier Язык : Russian Service kind : Complete Main Default : Да Forced : Нет Аудио #2 Идентификатор : 3 Формат : E-AC-3 Формат/Информация : Enhanced AC-3 Коммерческое название : Dolby Digital Plus Идентификатор кодека : A_EAC3 Продолжительность : 1 ч. 43 м. Вид битрейта : Постоянный Битрейт : 640 Кбит/сек Каналы : 6 каналов Channel layout : L R C LFE Ls Rs Частота : 48,0 КГц Частота кадров : 31,250 кадров/сек (1536 SPF) Метод сжатия : С потерями Размер потока : 476 Мбайт (6%) Заголовок : Original Язык : English Service kind : Complete Main Default : Нет Forced : Нет Текст #1 Идентификатор : 4 Формат : UTF-8 Идентификатор кодека : S_TEXT/UTF8 Идентификатор кодека/Информация : UTF-8 Plain Text Продолжительность : 1 ч. 43 м. Битрейт : 119 бит/сек Count of elements : 1724 Размер потока : 90,4 Кбайт (0%) Заголовок : ] Язык : Russian Default : Нет Forced : Нет Текст #2 Идентификатор : 5 Формат : UTF-8 Идентификатор кодека : S_TEXT/UTF8 Идентификатор кодека/Информация : UTF-8 Plain Text Продолжительность : 1 ч. 42 м. Битрейт : 74 бит/сек Count of elements : 1876 Размер потока : 56,2 Кбайт (0%) Заголовок : Язык : English Default : Нет Forced : Нет Текст #3 Идентификатор : 6 Формат : UTF-8 Идентификатор кодека : S_TEXT/UTF8 Идентификатор кодека/Информация : UTF-8 Plain Text Продолжительность : 1 ч. 43 м. Битрейт : 84 бит/сек Count of elements : 2099 Размер потока : 64,2 Кбайт (0%) Заголовок : Язык : English Default : Нет Forced : Нет

Всего файлов в раздаче: 1 
Next.Goal.Wins.2023.1080p.AMZN_от New-Team.mkv7.29 GB

Похожие раздачи по запросу - Следующий
2024-02-24 magnet Следующий гол - победный / Next Goal Wins (2023) BDRip от MegaPeer | P | Jaskier 1.46 GB ↑ 0 ↓ 0
2024-02-24 magnet Следующий гол - победный / Next Goal Wins (2023) BDRip 1080p от ExKinoRay | P 11.13 GB ↑ 0 ↓ 0
2024-01-23 magnet Следующий гол - победный / Next Goal Wins (2023) WEB-DLRip от New-Team | P | Jaskier 1.46 GB ↑ 0 ↓ 0

Комментарии


Зарегистрируйтесь чтобы добавить комментарий
Торрент клиент
byTorrent - программа для загрузки торрент-файлов.

Скачать byTorrent.exe (1,5 МБ)

Скачать byTorrent.zip (0,6 МБ)

Поддержи torrent.by
российских рублей
(300 российских рублей это 4$)

Обратная связь rss

End game ©