↑↓torrent.by
Поиск
Логин:  Регистрация
Пароль:

Заветное желание / Wish (2023) WEB-DL 1080p | D

download Скачать торрент-файл   magnet Магнитная ссылка Размер: 3.74 GB Добавлен: 2024-01-23 17:00
Пиры будут получены из сети DHT
Последний сидер был замечен 2024-02-24 01:29
Информация о фильме Название: Заветное желание Оригинальное название: Wish Год выпуска: 2023 Жанр: музыкальный, фэнтези, комедия, приключения, мультфильм Выпущено: США, Walt Disney Pictures Режиссер: Крис Бак, Фон Вирасунторн В ролях: Ариана ДеБос, Крис Пайн, Алан Тьюдик, Анжелика Кебрал, Виктор Гарбер, Наташа Ротуэлл, Дженнифер Кумияма, Харви Гильен, Нико Варгас, Эван Питерс Описание: Аша — остроумная идеалистка, которая загадывает настолько сильное желание, что на него отвечает космическая сила — маленький шарик безграничной энергии по имени Звезда. Вместе они противостоят самому грозному правителю Росаса, королю Магнифико. Защищая своих близких, Аша доказывает, что, когда воля одного отважного человека соединяется с магией звезд, могут происходить удивительные вещи. Продолжительность: 01:39:52 Перевод: Дублированный (MovieDalen) Субтитры: Русcкие (Forced, Full), английские (Full, SDH), азербайджанские, казахские Файл Формат: MKV Качество: WEB-DL 1080p Видео: AVC/H.264, 1920x1080, ~4678 Kbps Аудио 1: AC3, 2 ch, 448 Kbps - Русский Аудио 2: E-AC3, 6 ch, 256 Kbps - Английский Релиз от: RGB
[+] MediaInfo:General Unique ID : 213573535251187076905597864885212708171 (0xA0ACC4459790935B86204254B5CC7D4B) Complete name : Wish.2023.1080p.WEB-RGB.mkv Format : Matroska Format version : Version 4 File size : 3.74 GiB Duration : 1 h 39 min Overall bit rate : 5 363 kb/s Movie name : RGB Encoded date : UTC 2024-01-22 23:41:08 Writing application : mkvmerge v37.0.0 ('Leave It') 64-bit Writing library : libebml v1.3.9 + libmatroska v1.5.2 Video ID : 1 Format : AVC Format/Info : Advanced Video Codec Format profile : High@L4 Format settings : CABAC / 4 Ref Frames Format settings, CABAC : Yes Format settings, Reference frames : 4 frames Codec ID : V_MPEG4/ISO/AVC Duration : 1 h 39 min Bit rate : 4 678 kb/s Nominal bit rate : 5 280 kb/s Width : 1 920 pixels Height : 1 080 pixels Display aspect ratio : 16:9 Frame rate mode : Constant Frame rate : 24.000 FPS Color space : YUV Chroma subsampling : 4:2:0 Bit depth : 8 bits Scan type : Progressive Bits/(Pixel*Frame) : 0.094 Stream size : 3.26 GiB (87%) Title : RGB Writing library : x264 core 164 Encoding settings : cabac=1 / ref=2 / deblock=1:-1:-1 / analyse=0x3:0x113 / me=hex / subme=4 / psy=1 / psy_rd=1.00:0.15 / mixed_ref=0 / me_range=16 / chroma_me=1 / trellis=1 / 8x8dct=1 / cqm=0 / deadzone=21,11 / fast_pskip=1 / chroma_qp_offset=-1 / threads=12 / lookahead_threads=3 / sliced_threads=0 / nr=0 / decimate=1 / interlaced=0 / bluray_compat=0 / constrained_intra=0 / bframes=3 / b_pyramid=2 / b_adapt=1 / b_bias=0 / direct=1 / weightb=1 / open_gop=0 / weightp=1 / keyint=48 / keyint_min=24 / scenecut=0 / intra_refresh=0 / rc_lookahead=20 / rc=cbr / mbtree=1 / bitrate=5280 / ratetol=1.0 / qcomp=0.60 / qpmin=0 / qpmax=69 / qpstep=4 / vbv_maxrate=5280 / vbv_bufsize=10360 / nal_hrd=none / filler=0 / ip_ratio=1.40 / aq=1:1.00 Default : Yes Forced : No Color range : Limited Color primaries : BT.709 Transfer characteristics : BT.709 Matrix coefficients : BT.709 Audio #1 ID : 2 Format : AC-3 Format/Info : Audio Coding 3 Commercial name : Dolby Digital Codec ID : A_AC3 Duration : 1 h 34 min Bit rate mode : Constant Bit rate : 448 kb/s Channel(s) : 2 channels Channel layout : L R Sampling rate : 48.0 kHz Frame rate : 31.250 FPS (1536 SPF) Compression mode : Lossy Stream size : 304 MiB (8%) Title : DUB Stereo Language : Russian Service kind : Complete Main Default : Yes Forced : No Audio #2 ID : 3 Format : E-AC-3 Format/Info : Enhanced AC-3 Commercial name : Dolby Digital Plus Codec ID : A_EAC3 Duration : 1 h 39 min Bit rate mode : Constant Bit rate : 256 kb/s Channel(s) : 6 channels Channel layout : L R C LFE Ls Rs Sampling rate : 48.0 kHz Frame rate : 31.250 FPS (1536 SPF) Compression mode : Lossy Stream size : 183 MiB (5%) Language : English Service kind : Complete Main Default : No Forced : No Text #1 ID : 4 Format : UTF-8 Codec ID : S_TEXT/UTF8 Codec ID/Info : UTF-8 Plain Text Duration : 1 h 25 min Bit rate : 0 b/s Count of elements : 3 Stream size : 120 Bytes (0%) Title : Forced Language : Russian Default : Yes Forced : Yes Text #2 ID : 5 Format : UTF-8 Codec ID : S_TEXT/UTF8 Codec ID/Info : UTF-8 Plain Text Duration : 1 h 25 min Bit rate : 118 b/s Count of elements : 1661 Stream size : 73.7 KiB (0%) Language : Russian Default : No Forced : No Text #3 ID : 6 Format : UTF-8 Codec ID : S_TEXT/UTF8 Codec ID/Info : UTF-8 Plain Text Duration : 1 h 25 min Bit rate : 73 b/s Count of elements : 1664 Stream size : 46.1 KiB (0%) Language : English Default : No Forced : No Text #4 ID : 7 Format : UTF-8 Codec ID : S_TEXT/UTF8 Codec ID/Info : UTF-8 Plain Text Duration : 1 h 33 min Bit rate : 87 b/s Count of elements : 2221 Stream size : 60.5 KiB (0%) Title : SDH Language : English Default : No Forced : No Text #5 ID : 8 Format : UTF-8 Codec ID : S_TEXT/UTF8 Codec ID/Info : UTF-8 Plain Text Duration : 1 h 25 min Bit rate : 83 b/s Count of elements : 1663 Stream size : 52.4 KiB (0%) Language : Azerbaijani Default : No Forced : No Text #6 ID : 9 Format : UTF-8 Codec ID : S_TEXT/UTF8 Codec ID/Info : UTF-8 Plain Text Duration : 1 h 25 min Bit rate : 127 b/s Count of elements : 1663 Stream size : 80.2 KiB (0%) Language : Kazakh Default : No Forced : No
[+] Скриншоты

Всего файлов в раздаче: 1 
Wish.2023.1080p.WEB-RGB.mkv3.74 GB

Похожие раздачи по запросу - Заветное
2024-02-05 magnet Заветное желание / Wish (2023) WEB-DLRip | D | MovieDalen 743.42 MB ↑ 0 ↓ 0
2024-01-30 magnet Заветное желание / Wish (2023) WEB-DLRip 1080p | P | Jaskier 3.97 GB ↑ 0 ↓ 0
2024-01-30 magnet Заветное желание / Бажання / Wish (2023) WEB-DL-HEVC 2160p | 4K | SDR | D | UKR 13.97 GB ↑ 0 ↓ 0
2024-01-29 magnet Заветное желание / Wish (2023) WEB-DLRip от New-Team | P | TVShows 1.46 GB ↑ 0 ↓ 0
2024-01-29 magnet Заветное желание / Wish (2023) WEB-DL 720p от ExKinoRay | D, P 3.05 GB ↑ 0 ↓ 0
2024-01-27 magnet Заветное желание / Wish (2023) WEBDLRip 1080p | P | Jaskier 3.84 GB ↑ 0 ↓ 0
2024-01-24 magnet Заветное желание / Бажання / Wish (2023) WEB-DL 1080p | D | UKR 7.21 GB ↑ 0 ↓ 0

Комментарии


Зарегистрируйтесь чтобы добавить комментарий
Торрент клиент
byTorrent - программа для загрузки торрент-файлов.

Скачать byTorrent.exe (1,5 МБ)

Скачать byTorrent.zip (0,6 МБ)

Поддержи torrent.by
российских рублей
(300 российских рублей это 4$)

Обратная связь rss

End game ©