↑↓torrent.by
Поиск
Логин:  Регистрация
Пароль:

Семейный план / The Family Plan (2023) WEB-DL-HEVC 2160p | 4K | HDR | Dolby Vision Profile 8 | P

download Скачать торрент-файл   magnet Магнитная ссылка Размер: 22.14 GB Добавлен: 2024-01-24 05:00
Пиры будут получены из сети DHT
Последний сидер был замечен 2024-02-09 16:21
Название: Семейный план Оригинальное название: The Family Plan Год выхода: 2023 Производство: США / Apple Original Films, Skydance Media Жанр: Боевик, комедия Перевод: Профессиональный (многоголосый, закадровый) Продолжительность: 01:58:46 Режиссёр: Саймон Селлан Джоунс В ролях: Мишель Монахэн, Марк Уолберг, Мэгги Кью, Киаран Хайндс, Зои Маргарет Коллетти, Джонатан Койн, Фелиция Пирсон, Саид Тагмауи, Аниса Ниэлл Джонсон, Майлз Долеак Описание: Дэн Морган очень разноплановый: преданный муж, любящий отец, успешный продавец автомобилей. А еще он бывший наемный убийца. Когда его настигает прошлое, он вынужден взять ничего не подозревающую семью в уникальное путешествие. Формат: MKV Качество: WEB-DL 2160p Видео: HEVC/H.265, 3840x1608, ~23,6 Mbps, 0.159 бит/(Пиксели*Кадры), 23.976 fps Аудио 1: E-AC3, 6 ch, 768 kb/s - Русский MVO (NewStudio) Аудио 2: E-AC3, 6 ch, 768 kb/s - Русский MVO (NewComers) Аудио 3: AC-3, 6 ch, 640 kb/s - Русский MVO (LineFilm) Аудио 4: AC-3, 2 ch, 192 kb/s - Русский MVO (Red Head Sound) Аудио 5: E-AC3+Atmos, 6 ch, 768 kb/s - Английский Субтитры: Русские (Forced, Full), Украинские (Full), Английские (Forced, Full, SDH)
[+] MediainfoОбщее Уникальный идентификатор : 39323018642496811970181345432326803573 (0x1D9556815146A3C3882483F281429075) Полное имя : T:RELEASESFamily PlanThe.Family.Plan.2023.2160p.WEB-DL.DDP5.1.Atmos.HDR.DoVi.HP8.by.DVT.mkv Формат : Matroska Версия формата : Version 4 Размер файла : 22,1 Гбайт Продолжительность : 1 ч. 58 м. Общий поток : 26,7 Мбит/сек Частота кадров : 23,976 кадра/сек Название фильма : The Family Plan (2023) - Release by Dolby Vision Torrents Дата кодирования : 2024-01-05 16:09:37 UTC Программа кодирования : mkvmerge v81.0 ('Milliontown') 64-bit Библиотека кодирования : libebml v1.4.4 + libmatroska v1.7.1 Обложка : Yes Attachments : cover.jpg Видео Идентификатор : 1 Формат : HEVC Формат/Информация : High Efficiency Video Coding Профиль формата : Main 10@L5@High HDR format : Dolby Vision, Version 1.0, dvhe.08.06, BL+RPU, HDR10 compatible / SMPTE ST 2086, HDR10 compatible Идентификатор кодека : V_MPEGH/ISO/HEVC Продолжительность : 1 ч. 58 м. Битрейт : 23,6 Мбит/сек Ширина : 3 840 пикселей Высота : 1 608 пикселей Соотношение сторон : 2,40:1 Режим частоты кадров : Постоянный Частота кадров : 23,976 (24000/1001) кадра/сек Частота кадров в оригинале : 23,976 (23976/1000) кадра/сек Цветовое пространство : YUV Субдискретизация насыщенности : 4:2:0 (Type 2) Битовая глубина : 10 бит Бит/(Пиксели*Кадры) : 0.159 Размер потока : 19,5 Гбайт (88%) Заголовок : The Family Plan (2023) Язык : English Default : Да Forced : Нет Цветовой диапазон : Limited Основные цвета : BT.2020 Характеристики трансфера : PQ Коэффициенты матрицы : BT.2020 non-constant Mastering display color primaries : Display P3 Mastering display luminance : min: 0.0050 cd/m2, max: 1000 cd/m2 Maximum Content Light Level : 575 cd/m2 Maximum Frame-Average Light Level : 251 cd/m2 Аудио #1 Идентификатор : 2 Формат : E-AC-3 Формат/Информация : Enhanced AC-3 Коммерческое название : Dolby Digital Plus Идентификатор кодека : A_EAC3 Продолжительность : 1 ч. 58 м. Вид битрейта : Постоянный Битрейт : 768 Кбит/сек Каналы : 6 каналов Channel layout : L R C LFE Ls Rs Частота : 48,0 КГц Частота кадров : 31,250 кадров/сек (1536 SPF) Метод сжатия : С потерями Размер потока : 652 Мбайт (3%) Заголовок : MVO, NewStudio Язык : Russian Service kind : Complete Main Default : Да Forced : Нет Аудио #2 Идентификатор : 3 Формат : E-AC-3 Формат/Информация : Enhanced AC-3 Коммерческое название : Dolby Digital Plus Идентификатор кодека : A_EAC3 Продолжительность : 1 ч. 58 м. Вид битрейта : Постоянный Битрейт : 768 Кбит/сек Каналы : 6 каналов Channel layout : L R C LFE Ls Rs Частота : 48,0 КГц Частота кадров : 31,250 кадров/сек (1536 SPF) Метод сжатия : С потерями Размер потока : 652 Мбайт (3%) Заголовок : MVO, NewComers Язык : Russian Service kind : Complete Main Default : Нет Forced : Нет Аудио #3 Идентификатор : 4 Формат : AC-3 Формат/Информация : Audio Coding 3 Коммерческое название : Dolby Digital Идентификатор кодека : A_AC3 Продолжительность : 1 ч. 58 м. Вид битрейта : Постоянный Битрейт : 640 Кбит/сек Каналы : 6 каналов Channel layout : L R C LFE Ls Rs Частота : 48,0 КГц Частота кадров : 31,250 кадров/сек (1536 SPF) Метод сжатия : С потерями Размер потока : 544 Мбайт (2%) Заголовок : MVO, LineFilm Язык : Russian Service kind : Complete Main Default : Нет Forced : Нет Аудио #4 Идентификатор : 5 Формат : AC-3 Формат/Информация : Audio Coding 3 Коммерческое название : Dolby Digital Идентификатор кодека : A_AC3 Продолжительность : 1 ч. 58 м. Вид битрейта : Постоянный Битрейт : 192 Кбит/сек Каналы : 2 канала Channel layout : L R Частота : 48,0 КГц Частота кадров : 31,250 кадров/сек (1536 SPF) Метод сжатия : С потерями Размер потока : 163 Мбайт (1%) Заголовок : MVO, Red Head Sound Язык : Russian Service kind : Complete Main Default : Нет Forced : Нет Аудио #5 Идентификатор : 6 Формат : E-AC-3 JOC Формат/Информация : Enhanced AC-3 with Joint Object Coding Коммерческое название : Dolby Digital Plus with Dolby Atmos Идентификатор кодека : A_EAC3 Продолжительность : 1 ч. 58 м. Вид битрейта : Постоянный Битрейт : 768 Кбит/сек Каналы : 6 каналов Channel layout : L R C LFE Ls Rs Частота : 48,0 КГц Частота кадров : 31,250 кадров/сек (1536 SPF) Метод сжатия : С потерями Размер потока : 652 Мбайт (3%) Заголовок : Original Язык : English Service kind : Complete Main Default : Нет Forced : Нет Complexity index : 16 Number of dynamic objects : 15 Bed channel count : 1 канал Bed channel configuration : LFE Текст #1 Идентификатор : 7 Формат : UTF-8 Идентификатор кодека : S_TEXT/UTF8 Идентификатор кодека/Информация : UTF-8 Plain Text Продолжительность : 1 ч. 51 м. Битрейт : 4 бит/сек Частота кадров : 0,012 кадр/сек Count of elements : 79 Размер потока : 3,33 Кбайт (0%) Заголовок : Forced, NewComers Язык : Russian Default : Нет Forced : Нет Текст #2 Идентификатор : 8 Формат : UTF-8 Идентификатор кодека : S_TEXT/UTF8 Идентификатор кодека/Информация : UTF-8 Plain Text Продолжительность : 1 ч. 57 м. Битрейт : 99 бит/сек Частота кадров : 0,261 кадр/сек Count of elements : 1846 Размер потока : 85,8 Кбайт (0%) Заголовок : Full, AppleTV Язык : Russian Default : Нет Forced : Нет Текст #3 Идентификатор : 9 Формат : UTF-8 Идентификатор кодека : S_TEXT/UTF8 Идентификатор кодека/Информация : UTF-8 Plain Text Продолжительность : 1 ч. 57 м. Битрейт : 99 бит/сек Частота кадров : 0,262 кадр/сек Count of elements : 1853 Размер потока : 86,1 Кбайт (0%) Заголовок : Full, AppleTV Язык : Ukrainian Default : Нет Forced : Нет Текст #4 Идентификатор : 10 Формат : UTF-8 Идентификатор кодека : S_TEXT/UTF8 Идентификатор кодека/Информация : UTF-8 Plain Text Продолжительность : 31 м. 17 с. Битрейт : 2 бит/сек Частота кадров : 0,011 кадр/сек Count of elements : 21 Размер потока : 572 байт (0%) Заголовок : Forced Язык : English Default : Нет Forced : Нет Текст #5 Идентификатор : 11 Формат : UTF-8 Идентификатор кодека : S_TEXT/UTF8 Идентификатор кодека/Информация : UTF-8 Plain Text Продолжительность : 1 ч. 52 м. Битрейт : 69 бит/сек Частота кадров : 0,265 кадр/сек Count of elements : 1792 Размер потока : 57,8 Кбайт (0%) Заголовок : Full Язык : English Default : Нет Forced : Нет Текст #6 Идентификатор : 12 Формат : UTF-8 Идентификатор кодека : S_TEXT/UTF8 Идентификатор кодека/Информация : UTF-8 Plain Text Продолжительность : 1 ч. 52 м. Битрейт : 86 бит/сек Частота кадров : 0,317 кадр/сек Count of elements : 2146 Размер потока : 71,1 Кбайт (0%) Заголовок : SDH Язык : English Default : Нет Forced : Нет Меню 00:00:00.000 : Chapter 1 00:10:00.000 : Chapter 2 00:20:00.000 : Chapter 3 00:30:00.000 : Chapter 4 00:40:00.000 : Chapter 5 00:50:00.000 : Chapter 6 01:00:00.000 : Chapter 7 01:10:00.000 : Chapter 8 01:20:00.000 : Chapter 9 01:30:00.000 : Chapter 10 01:40:00.000 : Chapter 11 01:50:00.000 : Chapter 12
[+] Скриншоты

Всего файлов в раздаче: 1 
The.Family.Plan.2023.2160p.WEB-DL.DDP5.1.Atmos.HDR.DoVi.HP8.by.DVT.mkv22.14 GB

Похожие раздачи по запросу - Семейный
2024-01-24 magnet Наследственный признак / Семейный грешок / Скандал в провинции / Il vizio di famiglia / Family Vices (1975) DVDRip | L1 700.97 MB ↑ 0 ↓ 0
2024-01-22 magnet Вонка / Wonka [2023, мюзикл, фэнтези, комедия, приключения, семейный, WEB-DLRip-AVC] Dub (Bravo Records Georgia) 1.46 GB ↑ 0 ↓ 0
2024-01-07 magnet Лесси — лохматый детектив / Lassie - Ein neues Abenteuer [2023, семейный, приключения, WEB-DLRip] [Локализованный видеоряд] Dub (CPI Films) 1.46 GB ↑ 1 ↓ 0
2024-01-01 magnet Семейный обмен / Family Switch (2023) WEB-DLRip 1080p | D | Condor Films Studio 1.99 GB ↑ 0 ↓ 0
2023-12-28 magnet По щучьему велению [2023, фэнтези, приключения, семейный, WEB-DLRip] 1.46 GB ↑ 2 ↓ 0
2023-12-25 magnet Семейный обмен / Family Switch (2023) WEB-DL 1080p | D | Condor Films Studio 4.94 GB ↑ 0 ↓ 0
2023-12-18 magnet Семейный план / The Family Plan (2023) WEB-DLRip-AVC от ExKinoRay | P | NewComers 745.22 MB ↑ 0 ↓ 0

Комментарии


Зарегистрируйтесь чтобы добавить комментарий
Торрент клиент
byTorrent - программа для загрузки торрент-файлов.

Скачать byTorrent.exe (1,5 МБ)

Скачать byTorrent.zip (0,6 МБ)

Поддержи torrent.by
российских рублей
(300 российских рублей это 4$)

Обратная связь rss

End game ©