↑↓torrent.by
Поиск
Логин:  Регистрация
Пароль:

Феррари / Ferrari (2023) WEB-DL 1080p от JNS82 | Sub

download Скачать торрент-файл   magnet Магнитная ссылка Размер: 6.58 GB Добавлен: 2024-01-24 05:00
Пиры будут получены из сети DHT
Последний сидер был замечен 2024-02-21 14:49
Феррари / Ferrari Год выпуска: 2023 Выпущено: США, Великобритания, Италия, Китай, Forward Pass Жанр: Драма, биография, история Режиссер: Майкл Манн В ролях: Адам Драйвер, Пенелопа Крус, Шейлин Вудли, Сара Гадон, Гэбриел Леоне, Джек О`Коннелл, Патрик Демпси, Микеле Савойя, Эрик Хауген, Бен Коллинз О фильме: 1957 год. После утраты сына семейная жизнь экс-гонщика Энцо Феррари переживает кризис, а над знаменитой итальянской Скудерией нависла угроза банкротства. Чтобы круто поменять свою жизнь, он принимает участие в грандиозной гонке на выносливость Mille Miglia. Продолжительность: 02:10:39 Перевод: Субтитры Субтитры: Русские, английские Автор релиза: JNS82. Формат: MKV Качество: WEB-DL 1080p | AMZN Видео: MPEG-4 AVC, 6440 Кбит/с, 1920x816 Аудио #2: E-AC3 JOC, 6 ch, 768 Кбит/с | ENG |
[+] MediaInfoОбщее Уникальный идентификатор : 219777234538513017003617805667008413632 (0xA5578E42F5D9A0C3659F95918A0E7FC0) Полное имя : D:TorrentsFerrari.2023.REPACK.1080p.AMZN_от_JNS82.mkv Формат : Matroska Версия формата : Version 4 Размер файла : 6,58 Гбайт Продолжительность : 2 ч. 10 м. Общий поток : 7 207 Кбит/сек Название фильма : Ferrari.2023.REPACK.1080p.AMZN_от_JNS82 Дата кодирования : UTC 2024-01-23 17:56:44 Программа кодирования : mkvmerge v79.0 ('Funeral Pyres') 64-bit Библиотека кодирования : libebml v1.4.4 + libmatroska v1.7.1 Видео Идентификатор : 1 Формат : AVC Формат/Информация : Advanced Video Codec Профиль формата : High@L4 Настройки формата : CABAC / 4 Ref Frames Параметр CABAC формата : Да Параметр RefFrames формата : 4 кадра Идентификатор кодека : V_MPEG4/ISO/AVC Продолжительность : 2 ч. 10 м. Вид битрейта : Постоянный Битрейт : 6 440 Кбит/сек Номинальный битрейт : 10 000 Кбит/сек Ширина : 1 920 пикселей Высота : 816 пикселей Соотношение сторон : 2,35:1 Режим частоты кадров : Постоянный Частота кадров : 23,976 (24000/1001) кадра/сек Цветовое пространство : YUV Субдискретизация насыщенности : 4:2:0 Битовая глубина : 8 бит Тип развёртки : Прогрессивная Бит/(Пиксели*Кадры) : 0.171 Размер потока : 5,88 Гбайт (89%) Язык : English Default : Да Forced : Нет Цветовой диапазон : Limited Основные цвета : BT.709 Характеристики трансфера : BT.709 Коэффициенты матрицы : BT.709 Аудио Идентификатор : 2 Формат : E-AC-3 JOC Формат/Информация : Enhanced AC-3 with Joint Object Coding Коммерческое название : Dolby Digital Plus with Dolby Atmos Идентификатор кодека : A_EAC3 Продолжительность : 2 ч. 10 м. Вид битрейта : Постоянный Битрейт : 768 Кбит/сек Каналы : 6 каналов Channel layout : L R C LFE Ls Rs Частота : 48,0 КГц Частота кадров : 31,250 кадров/сек (1536 SPF) Метод сжатия : С потерями Задержка видео : 23 с. 668 мс. Размер потока : 715 Мбайт (11%) Заголовок : Original Язык : English Service kind : Complete Main Default : Да Forced : Нет Complexity index : 16 Number of dynamic objects : 15 Bed channel count : 1 канал Bed channel configuration : LFE Текст #1 Идентификатор : 3 Формат : UTF-8 Идентификатор кодека : S_TEXT/UTF8 Идентификатор кодека/Информация : UTF-8 Plain Text Продолжительность : 2 ч. 2 м. Битрейт : 68 бит/сек Count of elements : 1260 Размер потока : 61,7 Кбайт (0%) Заголовок : Язык : Russian Default : Да Forced : Нет Текст #2 Идентификатор : 4 Формат : UTF-8 Идентификатор кодека : S_TEXT/UTF8 Идентификатор кодека/Информация : UTF-8 Plain Text Продолжительность : 1 ч. 57 м. Битрейт : 43 бит/сек Count of elements : 1269 Размер потока : 37,3 Кбайт (0%) Заголовок : Язык : English Default : Нет Forced : Нет Текст #3 Идентификатор : 5 Формат : UTF-8 Идентификатор кодека : S_TEXT/UTF8 Идентификатор кодека/Информация : UTF-8 Plain Text Продолжительность : 2 ч. 8 м. Битрейт : 44 бит/сек Count of elements : 1453 Размер потока : 42,0 Кбайт (0%) Заголовок : Язык : English Default : Нет Forced : Нет Меню 00:00:00.000 : en:Chapter 01 00:10:53.403 : en:Chapter 02 00:21:13.398 : en:Chapter 03 00:30:40.215 : en:Chapter 04 00:41:09.844 : en:Chapter 05 00:51:17.619 : en:Chapter 06 01:03:53.708 : en:Chapter 07 01:10:52.377 : en:Chapter 08 01:20:11.519 : en:Chapter 09 01:30:57.499 : en:Chapter 10 01:41:13.782 : en:Chapter 11 01:52:10.021 : en:Chapter 12 02:04:29.094 : en:Chapter 13

Всего файлов в раздаче: 1 
Ferrari.2023.REPACK.1080p.AMZN_от_JNS82.mkv6.58 GB

Похожие раздачи по запросу - Феррари
2024-01-29 magnet Феррари / Ferrari [2023, WEB-DLRip] + MVO (NewStudio) 2.05 GB ↑ 0 ↓ 0
2024-01-29 magnet Феррари / Ferrari (2023) WEB-DLRip от MegaPeer | P | NewStudio 1.46 GB ↑ 0 ↓ 0
2024-01-29 magnet Феррари / Ferrari (2023) WEB-DL 720p от ExKinoRay | P 3.36 GB ↑ 0 ↓ 0
2024-01-29 magnet Феррари / Ferrari (2023) WEB-DLRip-AVC от DoMiNo & селезень | P | NewStudio 1.93 GB ↑ 0 ↓ 0
2024-01-29 magnet Феррари / Ferrari (2023) WEB-DLRip от MegaPeer | P | NewStudio 2.19 GB ↑ 0 ↓ 0
2023-09-17 magnet Ford против Ferrari / Форд против Феррари / Ford v Ferrari (2019) BDRip 1080p от qqss44 & MegaPeer | iTunes 9.47 GB ↑ 0 ↓ 0

Комментарии


Зарегистрируйтесь чтобы добавить комментарий
Торрент клиент
byTorrent - программа для загрузки торрент-файлов.

Скачать byTorrent.exe (1,5 МБ)

Скачать byTorrent.zip (0,6 МБ)

Поддержи torrent.by
российских рублей
(300 российских рублей это 4$)

Обратная связь rss

End game ©