↑↓torrent.by
Поиск
Логин:  Регистрация
Пароль:

Поднятие уровня в одиночку / Ore dake Level Up na Ken / Solo Leveling [01x01-03 из 12] (2024) WEBRip 1080p от KORSARS | D | StudioBand

download Скачать торрент-файл   magnet Магнитная ссылка Размер: 4.19 GB Добавлен: 2024-01-24 11:00
Пиры будут получены из сети DHT
Последний сидер был замечен 2024-02-02 20:40
Информация о фильме Название: Поднятие уровня в одиночку Оригинальное название: Ore dake Level Up na Ken Английское название: Solo Leveling Год выхода: 2024 Жанр: экшен, приключения, фэнтези Режиссер: Сюнсукэ Накасигэ О фильме: 10 лет назад открылись врата в другой мир, где людям дозволено убивать монстров. Так появились охотники, преследующие и уничтожающие тварей. Но не каждому из них суждено повысить свой уровень и стать сильнее. Сон Джин-у был охотником низшего E-ранга, у которого не было ни единого шанса продвинуться по ранговой лестнице, пока однажды он случайно не очутился в подземелье D-ранга. Чуть не погибнув от рук чудовищ, Джин-у открывает секрет повышения уровня. Страна: Южная Корея, Япония Студия: A-1 Pictures Продолжительность: ~ 00:24:00 (серия) Перевод: Дублированный (неофициальный) | StudioBand Файл Формат: MKV Кодек: MPEG-4 AVC Качество: WEBRip 1080p | Erai-raws Видео: 1920x1080, ~ 8 000 kb/s, 23.976 FPS. 8 bits Аудио (русский): AAC LC, ~ 314 kb/s, 2 channels, 48.0 kHz | StudioBand Субтитры: русские (хардсаб на надписи) Релиз от:
[+] MediaInfo General Unique ID : 101664664786316950957360089028995533677 (0x4C7BE6F7E08FE0BE3386D01A575F4B6D) Complete name : _Ore.dake.Level.Up.na.Ken.S01E01.WEBRip.1080p.StudioBand.mkv Format : Matroska Format version : Version 4 File size : 1.34 GiB Duration : 23 min 40 s Overall bit rate : 8 121 kb/s Frame rate : 23.976 FPS Movie name : _Ore.dake.Level.Up.na.Ken.S01E01.WEBRip.1080p.StudioBand Encoded date : 2024-01-07 09:25:16 UTC Writing application : mkvmerge v82.0 ('I'm The President') 64-bit Writing library : libebml v1.4.5 + libmatroska v1.7.1 Video ID : 1 Format : AVC Format/Info : Advanced Video Codec Format profile : Main@L4 Format settings : CABAC / 4 Ref Frames Format settings, CABAC : Yes Format settings, Reference : 4 frames Codec ID : V_MPEG4/ISO/AVC Duration : 23 min 40 s Bit rate : 8 000 kb/s Width : 1 920 pixels Height : 1 080 pixels Display aspect ratio : 16:9 Frame rate mode : Constant Frame rate : 23.976 (24000/1001) FPS Color space : YUV Chroma subsampling : 4:2:0 Bit depth : 8 bits Scan type : Progressive Bits/(Pixel*Frame) : 0.161 Stream size : 1.29 GiB (96%) Title : _Ore.dake.Level.Up.na.Ken.S01E01.WEBRip.1080p.StudioBand Writing library : x264 core 164 r3107 a8b68ebf Encoding settings : cabac=1 / ref=3 / deblock=1:0:0 / analyse=0x1:0x111 / me=hex / subme=7 / psy=1 / psy_rd=1.00:0.00 / mixed_ref=1 / me_range=16 / chroma_me=1 / trellis=1 / 8x8dct=0 / cqm=0 / deadzone=21,11 / fast_pskip=1 / chroma_qp_offset=-2 / threads=9 / lookahead_threads=1 / sliced_threads=0 / nr=0 / decimate=1 / interlaced=0 / bluray_compat=0 / constrained_intra=0 / bframes=3 / b_pyramid=2 / b_adapt=1 / b_bias=0 / direct=1 / weightb=1 / open_gop=0 / weightp=2 / keyint=240 / keyint_min=24 / scenecut=40 / intra_refresh=0 / rc_lookahead=40 / rc=abr / mbtree=1 / bitrate=8000 / ratetol=1.0 / qcomp=0.60 / qpmin=0 / qpmax=69 / qpstep=4 / vbv_maxrate=20000 / vbv_bufsize=25000 / nal_hrd=none / filler=0 / ip_ratio=1.40 / aq=1:1.00 Default : Yes Forced : No Color range : Limited Color primaries : BT.709 Transfer characteristics : BT.709 Matrix coefficients : BT.709 Audio ID : 2 Format : AAC LC Format/Info : Advanced Audio Codec Low Complexity Codec ID : A_AAC-2 Duration : 23 min 40 s Bit rate : 314 kb/s Channel(s) : 2 channels Channel layout : L R Sampling rate : 48.0 kHz Frame rate : 46.875 FPS (1024 SPF) Compression mode : Lossy Stream size : 53.1 MiB (4%) Title : StudioBand Language : Russian Default : Yes Forced : No
[+] Скриншоты
23.01.2024 обновлено. 3 серия. Приятного просмотра.

Всего файлов в раздаче: 3 
[KORSARS]_Ore.dake.Level.Up.na.Ken.S01E01.WEBRip.1080p.StudioBand.mkv1.34 GB
[KORSARS]_Ore.dake.Level.Up.na.Ken.S01E02.WEBRip.1080p.StudioBand.mkv1.43 GB
[KORSARS]_Ore.dake.Level.Up.na.Ken.S01E03.WEBRip.1080p.StudioBand.mkv1.42 GB

Похожие раздачи по запросу - Поднятие
Вчера magnet Поднятие уровня в одиночку / Ore dake Level Up na Ken / Solo Leveling [01x01-07 из 12] (2024) WEBRip 1080p от KORSARS | D | StudioBand 1К9.90 GB ↑ 0 ↓ 0
2024-02-24 magnet Поднятие уровня в одиночку / Ore dake Level Up na Ken / Solo Leveling [01x01-07 из 12] (2024) WEBRip 1080p | AniLibria 9.91 GB ↑ 0 ↓ 0
2024-02-14 magnet Поднятие уровня в одиночку / Ore dake Level Up na Ken / Solo Leveling [01x01-06 из 12] (2024) WEBRip 1080p от KORSARS | D | StudioBand 1К8.48 GB ↑ 0 ↓ 0
2024-02-11 magnet Поднятие уровня в одиночку / Ore dake Level Up na Ken / Solo Leveling [01x01-05 из 12] (2024) WEBRip 1080p от KORSARS | D | StudioBand 4К7.05 GB ↑ 0 ↓ 0
2024-02-01 magnet Поднятие уровня в одиночку / Ore dake Level Up na Ken / Solo Leveling [01x01-04 из 12] (2024) WEBRip 1080p от KORSARS | D | StudioBand 1К5.62 GB ↑ 0 ↓ 0
2024-01-27 magnet Поднятие уровня в одиночку / Ore dake Level Up na Ken / Solo Leveling [01x01-03 из 12] (2024) WEB-DL1080p | D, P, L 4.56 GB ↑ 0 ↓ 0

Комментарии


Зарегистрируйтесь чтобы добавить комментарий
Торрент клиент
byTorrent - программа для загрузки торрент-файлов.

Скачать byTorrent.exe (1,5 МБ)

Скачать byTorrent.zip (0,6 МБ)

Поддержи torrent.by
российских рублей
(300 российских рублей это 4$)

Обратная связь rss

End game ©