↑↓torrent.by
Поиск
Логин:  Регистрация
Пароль:

Dream Evil - United (2006) FLAC

download Скачать торрент-файл   magnet Магнитная ссылка Размер: 431.89 MB Добавлен: 2024-01-24 11:00
Пиры будут получены из сети DHT
Последний сидер был замечен 2024-02-06 09:57
Исполнитель: Dream Evil Название: United Издатель: Fono Ltd. Номер диска по каталогу: FO636CD Источник: Диск из личной коллекции Год: 2006 Жанр: Heavy-Metal, Power-Metal Страна: Швеция Кодек: FLAC Битрейт аудио: Lossless Формат: image+.cue+.log Продолжительность: 00:48:56 Рок-Энциклопедия
[+] Трек-лист01. Fire! Battle! In Metal! 02. United 03. Blind Evil 04. Evilution 05. Let Me Out 06. Higher On Fire 07. Kingdom At War 08. Love Is Blind 09. Falling 10. Back From The Dead 11. Doomlord 12. My Number One
[+] Отчёт ЕАСExact Audio Copy V1.6 from 23. October 2020 Отчёт EAC об извлечении, выполненном 31. декабря 2023, 14:33 DREAM EVIL / "United" Дисковод: ASUS SBW-06C1S-U Adapter: 0 ID: 0 Режим чтения : Достоверность Использование точного потока : Да Отключение кэша аудио : Да Использование указателей C2 : Нет Коррекция смещения при чтении : 48 Способность читать области Lead-in и Lead-out : Нет Заполнение пропущенных сэмплов тишиной : Да Удаление блоков с тишиной в начале и конце : Нет При вычислениях CRC использовались нулевые сэмплы : Да Интерфейс : Установленный внешний ASPI-интерфейс Выходной формат : Пользовательский кодировщик Выбранный битрейт : 1024 kBit/s Качество : Высокий Добавление ID3-тега : Нет Утилита сжатия : C:Program Files (x86)Exact Audio CopyFlacflac.exe Дополнительные параметры : -8 -V -T "TITLE=%title%" -T "ARTIST=%artist%" -T "ALBUMARTIST=%albumartist%" -T "ALBUM=%albumtitle%" -T "DATE=%year%" -T "TRACKNUMBER=%tracknr%" -T "TRACKTOTAL=%numtracks%" -T "GENRE=%genre%" -T "COMMENT=%comment%" -T "PERFORMER=%albuminterpret%" -T "COMPOSER=%composer%" %source% -o %dest% TOC извлечённого CD Трек | Старт | Длительность | Начальный сектор | Конечный сектор --------------------------------------------------------------------- 1 | 0:00.00 | 3:11.30 | 0 | 14354 2 | 3:11.30 | 3:33.20 | 14355 | 30349 3 | 6:44.50 | 4:23.18 | 30350 | 50092 4 | 11:07.68 | 4:28.34 | 50093 | 70226 5 | 15:36.27 | 4:28.26 | 70227 | 90352 6 | 20:04.53 | 4:29.31 | 90353 | 110558 7 | 24:34.09 | 3:11.50 | 110559 | 124933 8 | 27:45.59 | 4:47.36 | 124934 | 146494 9 | 32:33.20 | 4:01.01 | 146495 | 164570 10 | 36:34.21 | 4:28.63 | 164571 | 184733 11 | 41:03.09 | 4:42.61 | 184734 | 205944 12 | 45:45.70 | 3:09.70 | 205945 | 220189 Характеристики диапазона извлечения и сообщения об ошибках Выбранный диапазон Имя файла D:RazdachiAudioDream Evil - 2006 - United DREAM EVIL - ''United''.wav Пиковый уровень 94.2 % Скорость извлечения 13.7 X Качество диапазона 99.9 % CRC теста 8F103AA5 CRC копии 8F103AA5 Копирование... OK Ошибок не произошло AccurateRip: сводка Трек 1 точность не определена (достоверность 26) , AccurateRip вернул (AR v2) Трек 2 точность не определена (достоверность 27) , AccurateRip вернул (AR v2) Трек 3 точность не определена (достоверность 27) , AccurateRip вернул (AR v2) Трек 4 точность не определена (достоверность 27) , AccurateRip вернул (AR v2) Трек 5 точность не определена (достоверность 27) , AccurateRip вернул (AR v2) Трек 6 точность не определена (достоверность 27) , AccurateRip вернул (AR v2) Трек 7 точность не определена (достоверность 27) , AccurateRip вернул (AR v2) Трек 8 точность не определена (достоверность 27) , AccurateRip вернул (AR v2) Трек 9 точность не определена (достоверность 27) , AccurateRip вернул (AR v2) Трек 10 точность не определена (достоверность 27) , AccurateRip вернул (AR v2) Трек 11 точность не определена (достоверность 27) , AccurateRip вернул (AR v2) Трек 12 точность не определена (достоверность 26) , AccurateRip вернул (AR v2) Ни один трек не прошёл проверки на точность В вашей базе может быть иной вариант штамповки диска Конец отчёта ---- CUETools DB Plugin V2.1.6 found Submit result: bV4w0d2hCbDCum3pAsYBIw09eco- has been confirmed Track | CTDB Status 1 | (140/140) Accurately ripped 2 | (140/140) Accurately ripped 3 | (109/140) Accurately ripped, or (31/140) differs in 24 samples @00:00:02 4 | (140/140) Accurately ripped 5 | (109/140) Accurately ripped, or (31/140) differs in 19 samples @00:00:02 6 | (140/140) Accurately ripped 7 | (109/140) Accurately ripped, or (31/140) differs in 40 samples @00:00:02 8 | (140/140) Accurately ripped 9 | (140/140) Accurately ripped 10 | (109/140) Accurately ripped, or (31/140) differs in 12 samples @00:00:02 11 | (109/140) Accurately ripped, or (31/140) differs in 40 samples @00:00:02 12 | (140/140) Accurately ripped ==== Контрольная сумма отчёта BD95720A81A05534AD89154CF01CCCC314BCAC76C6C687A8F3157CC2BADCCA03 ====
Дополнительная информация: Dream Evil (с англ. — «Зло из снов») — пауэр-метал группа из Швеции, была основана в 1999 году музыкальным продюсером Фредриком Нурдстрёмом (Fredrik Nordström). Время раздачи: В дневное время.

Всего файлов в раздаче: 14 
DREAM EVIL - ''United''.cue1.57 kB
DREAM EVIL - ''United''.flac380.48 MB
DREAM EVIL - ''United''.log9.92 kB
Scans\Scan 01.jpg2.80 MB
Scans\Scan 02.jpg6.65 MB
Scans\Scan 03.jpg6.93 MB
Scans\Scan 04.jpg6.31 MB
Scans\Scan 05.jpg6.00 MB
Scans\Scan 06.jpg6.06 MB
Scans\Scan 07.jpg2.51 MB
Показать все файлы

Похожие раздачи по запросу - Dream
2024-02-04 magnet VA - Dream Dance Vol. 95 - The Annual (Extended Versions) (2024) MP3 815.39 MB ↑ 0 ↓ 0
2024-02-02 magnet VA - Dream Dance Vol. 95 - The Annual (2024) MP3 496.10 MB ↑ 1 ↓ 0
2024-01-27 magnet Становясь волшебницей / Mahou Shoujo ni Akogarete [01x01-04 из 13] (2024) WEBRip 1080p от MoscowGolem | L | Dream Cast, AniDub Online, AniLibria 2К2.61 GB ↑ 0 ↓ 0
2024-01-26 magnet Герой наших снов / Dream Scenario (2023) WEB-DLRip-AVC от DoMiNo & селезень | P, P2, A 2.00 GB ↑ 0 ↓ 0
2024-01-26 magnet Герой наших снов / Dream Scenario (2023) WEB-DL 1080p от ExKinoRay | P, P2, A 7.91 GB ↑ 0 ↓ 0
2024-01-24 magnet Dream Evil - Six (2017) FLAC 581.33 MB ↑ 0 ↓ 0
2024-01-24 magnet Dream Evil - The Book Of Heavy Metal (2004) FLAC 450.38 MB ↑ 0 ↓ 0

Комментарии


Зарегистрируйтесь чтобы добавить комментарий
Торрент клиент
byTorrent - программа для загрузки торрент-файлов.

Скачать byTorrent.exe (1,5 МБ)

Скачать byTorrent.zip (0,6 МБ)

Поддержи torrent.by
российских рублей
(300 российских рублей это 4$)

Обратная связь rss

End game ©