↑↓torrent.by
Поиск
Логин:  Регистрация
Пароль:

Заветное желание / Wish (2023) WEB-DLRip-AVC от DoMiNo & селезень | D | MovieDalen

download Скачать торрент-файл   magnet Магнитная ссылка Размер: 1.29 GB Добавлен: 2024-01-24 11:00
Пиры будут получены из сети DHT
Последний сидер был замечен 2024-02-25 21:30
Информация о фильме Название: Заветное желание Оригинальное название: Wish Год выпуска: 2023 Жанр: музыкальный, фэнтези, комедия, приключения, мультфильм Режиссер: Крис Бак, Фон Вирасунторн В ролях: Ариана ДеБос, Крис Пайн, Алан Тьюдик, Анжелика Кебрал, Виктор Гарбер, Наташа Ротуэлл, Дженнифер Кумияма, Харви Гильен, Нико Варгас, Эван Питерс Описание: Аша загадывает настолько сильное желание, что на него отвечает космическая сила — маленький шарик безграничной энергии по имени Звезда. Вместе они противостоят самому грозному правителю Росаса, королю Магнифико. Страна: США Студия: Walt Disney Animation Studios, Walt Disney Pictures Продолжительность: 01:34:56 Перевод: Профессиональный (полное дублирование) | MovieDalen Субтитры: Русcкие (Forced, Full), английские (Full, SDH) Файл Формат: Matroska Качество: WEB-DLRip-AVC | Исх.Wish.2023.1080p.WEB-DL.DDP5.1.Atmos.H.264-FLUX Видео: 1024x400 at 24.000 fps, x264@L4.1, ~1744 kbps Аудио: AC3, 2 ch, ~192 kbps - | Русский | Формат субтитров: softsub (SRT) ***Рип от: -=DoMiNo=-
[+] M/IGeneral Unique ID : 310374396924536829882866499717957935527 (0xE97FEF3B71EEEC801CCD2F552983E1A7) Complete name : I:Wish.2023.DUB.WEB-DLRip.x264.seleZen.mkv Format : Matroska Format version : Version 4 File size : 1.29 GiB Duration : 1 h 34 min Overall bit rate : 1 938 kb/s Frame rate : 24.000 FPS Movie name : Wish.2023.DUB.WEB-DLRip.x264.seleZen Encoded date : 2024-01-23 20:25:16 UTC Writing application : mkvmerge v82.0 ('I'm The President') 64-bit Writing library : libebml v1.4.5 + libmatroska v1.7.1 Cover : Yes Attachments : cover.jpg / small_cover.jpg Video ID : 1 Format : AVC Format/Info : Advanced Video Codec Format profile : High@L4.1 Format settings : CABAC / 14 Ref Frames Format settings, CABAC : Yes Format settings, Reference : 14 frames Codec ID : V_MPEG4/ISO/AVC Duration : 1 h 34 min Bit rate : 1 744 kb/s Width : 1 024 pixels Height : 400 pixels Display aspect ratio : 2.560 Frame rate mode : Constant Frame rate : 24.000 FPS Color space : YUV Chroma subsampling : 4:2:0 Bit depth : 8 bits Scan type : Progressive Bits/(Pixel*Frame) : 0.177 Stream size : 1.16 GiB (90%) Title : -=DoMiNo=- Writing library : x264 core 164 r3173 -DoMiNo Encoding settings : cabac=1 / ref=14 / deblock=1:-1:-1 / analyse=0x3:0x133 / me=umh / subme=10 / psy=1 / psy_rd=1.01:0.03 / mixed_ref=1 / me_range=32 / chroma_me=1 / trellis=2 / 8x8dct=1 / cqm=0 / deadzone=21,11 / fast_pskip=0 / chroma_qp_offset=-3 / threads=17 / lookahead_threads=3 / sliced_threads=0 / nr=0 / decimate=0 / interlaced=0 / bluray_compat=0 / constrained_intra=0 / bframes=10 / b_pyramid=2 / b_adapt=2 / b_bias=0 / direct=1 / weightb=1 / open_gop=0 / weightp=2 / keyint=250 / keyint_min=24 / scenecut=40 / intra_refresh=0 / rc_lookahead=60 / rc=crf / mbtree=0 / crf=18.0 / qcomp=0.60 / qpmin=0 / qpmax=69 / qpstep=4 / vbv_maxrate=50000 / vbv_bufsize=62500 / crf_max=0.0 / nal_hrd=none / filler=0 / ip_ratio=1.38 / pb_ratio=1.30 / aq=2:0.90 Language : English Default : Yes Forced : No Color range : Limited Color primaries : BT.709 Transfer characteristics : BT.709 Matrix coefficients : BT.709 Audio ID : 2 Format : AC-3 Format/Info : Audio Coding 3 Commercial name : Dolby Digital Codec ID : A_AC3 Duration : 1 h 34 min Bit rate mode : Constant Bit rate : 192 kb/s Channel(s) : 2 channels Channel layout : L R Sampling rate : 48.0 kHz Frame rate : 31.250 FPS (1536 SPF) Compression mode : Lossy Stream size : 130 MiB (10%) Title : DUB -MovieDalen Language : Russian Service kind : Complete Main Default : Yes Forced : No Text #1 ID : 3 Format : UTF-8 Codec ID : S_TEXT/UTF8 Codec ID/Info : UTF-8 Plain Text Duration : 1 h 25 min Bit rate : 0 b/s Frame rate : 0.001 FPS Count of elements : 3 Stream size : 120 Bytes (0%) Title : Forced Language : Russian Default : No Forced : No Text #2 ID : 4 Format : UTF-8 Codec ID : S_TEXT/UTF8 Codec ID/Info : UTF-8 Plain Text Duration : 1 h 25 min Bit rate : 118 b/s Frame rate : 0.325 FPS Count of elements : 1661 Stream size : 73.7 KiB (0%) Title : Full Language : Russian Default : No Forced : No Text #3 ID : 5 Format : UTF-8 Codec ID : S_TEXT/UTF8 Codec ID/Info : UTF-8 Plain Text Duration : 1 h 25 min Bit rate : 77 b/s Frame rate : 0.326 FPS Count of elements : 1664 Stream size : 48.2 KiB (0%) Title : Full Language : English Default : No Forced : No Text #4 ID : 6 Format : UTF-8 Codec ID : S_TEXT/UTF8 Codec ID/Info : UTF-8 Plain Text Duration : 1 h 33 min Bit rate : 92 b/s Frame rate : 0.394 FPS Count of elements : 2221 Stream size : 63.7 KiB (0%) Title : SDH Language : English Default : No Forced : No Menu 00:00:00.000 : en:Chapter 01 00:06:31.041 : en:Chapter 02 00:09:39.791 : en:Chapter 03 00:14:20.750 : en:Chapter 04 00:21:07.125 : en:Chapter 05 00:23:17.958 : en:Chapter 06 00:29:50.833 : en:Chapter 07 00:37:19.875 : en:Chapter 08 00:39:07.500 : en:Chapter 09 00:45:29.916 : en:Chapter 10 00:49:56.250 : en:Chapter 11 00:53:29.083 : en:Chapter 12 00:58:18.583 : en:Chapter 13 01:00:30.208 : en:Chapter 14 01:03:42.583 : en:Chapter 15 01:08:42.958 : en:Chapter 16 01:11:39.416 : en:Chapter 17 01:14:52.541 : en:Chapter 18 01:23:41.791 : en:Chapter 19 01:26:43.416 : en:Chapter 20
Релиз: Присоединяйся к: Кликай на баннеры.

Всего файлов в раздаче: 1 
Wish.2023.DUB.WEB-DLRip.x264.seleZen.mkv1.29 GB

Похожие раздачи по запросу - Заветное
2024-02-05 magnet Заветное желание / Wish (2023) WEB-DLRip | D | MovieDalen 743.42 MB ↑ 0 ↓ 0
2024-01-30 magnet Заветное желание / Wish (2023) WEB-DLRip 1080p | P | Jaskier 3.97 GB ↑ 0 ↓ 0
2024-01-30 magnet Заветное желание / Бажання / Wish (2023) WEB-DL-HEVC 2160p | 4K | SDR | D | UKR 13.97 GB ↑ 0 ↓ 0
2024-01-29 magnet Заветное желание / Wish (2023) WEB-DLRip от New-Team | P | TVShows 1.46 GB ↑ 0 ↓ 0
2024-01-29 magnet Заветное желание / Wish (2023) WEB-DL 720p от ExKinoRay | D, P 3.05 GB ↑ 0 ↓ 0
2024-01-27 magnet Заветное желание / Wish (2023) WEBDLRip 1080p | P | Jaskier 3.84 GB ↑ 0 ↓ 0
2024-01-24 magnet Заветное желание / Бажання / Wish (2023) WEB-DL 1080p | D | UKR 7.21 GB ↑ 0 ↓ 0

Комментарии

olelucoue
Мульт понравился!


Зарегистрируйтесь чтобы добавить комментарий
Торрент клиент
byTorrent - программа для загрузки торрент-файлов.

Скачать byTorrent.exe (1,5 МБ)

Скачать byTorrent.zip (0,6 МБ)

Поддержи torrent.by
российских рублей
(300 российских рублей это 4$)

Обратная связь rss

End game ©