↑↓torrent.by
Поиск
Логин:  Регистрация
Пароль:

Парни в лодке / The Boys in the Boat (2023) WEB-DLRip от New-Team | P | Jaskier

download Скачать торрент-файл   magnet Магнитная ссылка Размер: 1.46 GB Раздают: 1 Качают: 0 Добавлен: 2024-01-24 17:00
Пиры будут получены из сети DHT
Последний сидер был замечен сегодня в 17:15
Парни в лодке / The Boys in the Boat Год выпуска: 2023 Выпущено: США, Metro-Goldwyn-Mayer (MGM), Spyglass Entertainment, Smokehouse Pictures, Lantern Entertainment, Solas Mind, Tempesta Films Жанр: биография, драма, спорт Режиссер: Джордж Клуни / George Clooney В ролях: Джоэл Эдгертон, Каллум Тёрнер, Сэм Страйк, Томас Элмс, Люк Слэттери, Джек Малхерн, Том Вэйри, Брюс Эрбелин-Эрл, Уил Кобан, Хэдли Робинсон, Фрэнки Фокс, Крис Диамантопулос, Алек Ньюман, Джеймс Уок, Питер Гиннесс, Сэм Дуглас, Лорел Лефкоу, Крис Уилсон О фильме: История команды гребцов-аутсайдеров из Вашингтонского университета, которые отправляются на Олимпийские игры 1936 года в Берлин. Продолжительность: 02:03:44 Перевод: Профессиональный (многоголосый, закадровый) | Jaskier | Tnx.KinoPub Субтитры: Нет. Раздача от: Автор релиза: JNS82. Формат: AVI Качество: WEB-DLRip Видео: 720x304 (2.35:1), 23.976 fps, XviD MPEG-4 ~ 1300 kbps avg, 0.248 bit/pixel, build 74 Аудио: 48 kHz, AC3 Dolby Digital, 3/2 (L,C,R,l,r) + LFE ch, ~ kbps | RUS |
[+] MediaInfoОбщее Полное имя : D:TorrentsThe.Boys.in.The.Boat.2023.WEB-DLRip_от New-Team_by_JNS82.avi Формат : AVI Формат/Информация : Audio Video Interleave Размер файла : 1,46 Гбайт Продолжительность : 2 ч. 3 м. Общий поток : 1 693 Кбит/сек Программа кодирования : VirtualDubMod 1.5.10.2 (build 2540/release) Библиотека кодирования : VirtualDubMod build 2540/release Видео Идентификатор : 0 Формат : MPEG-4 Visual Профиль формата : Advanced Simple@L5 Настройки формата : BVOP1 / Custom Matrix Параметр BVOP формата : 1 Параметр QPel формата : Нет Параметр GMC формата : Без точки перехода Параметр матрицы формата : Выборочная Идентификатор кодека : XVID Идентификатор кодека/Подсказка : XviD Продолжительность : 2 ч. 3 м. Битрейт : 1 300 Кбит/сек Ширина : 720 пикселей Высота : 304 пикселя Соотношение сторон : 2,35:1 Частота кадров : 23,976 (24000/1001) кадра/сек Цветовое пространство : YUV Субдискретизация насыщенности : 4:2:0 Битовая глубина : 8 бит Тип развёртки : Прогрессивная Метод сжатия : С потерями Бит/(Пиксели*Кадры) : 0.248 Размер потока : 1,12 Гбайт (77%) Библиотека кодирования : XviD 74 Аудио Идентификатор : 1 Формат : AC-3 Формат/Информация : Audio Coding 3 Коммерческое название : Dolby Digital Идентификатор кодека : 2000 Продолжительность : 2 ч. 3 м. Вид битрейта : Постоянный Битрейт : 384 Кбит/сек Каналы : 6 каналов Channel layout : L R C LFE Ls Rs Частота : 48,0 КГц Частота кадров : 31,250 кадров/сек (1536 SPF) Метод сжатия : С потерями Размер потока : 340 Мбайт (23%) Выравнивание : Разделение по промежуткам Продолжительность промежутка : 42 мс. (1,00 видеокадр) Время предзагрузки промежутка : 500 мс. Service kind : Complete Main

Всего файлов в раздаче: 1 
The.Boys.in.The.Boat.2023.WEB-DLRip_от New-Team_by_JNS82.avi1.46 GB

Похожие раздачи по запросу - Парни
2024-02-15 magnet Плохие парни / Bad Hombres (2023) WEB-DLRip от toxics | D | Локализованная версия 744.19 MB ↑ 1 ↓ 0
2024-02-14 magnet Плохие парни / Bad Hombres (2023) WEB-DLRip-AVC от DoMiNo & селезень | D 1.43 GB ↑ 0 ↓ 0
2024-02-14 magnet Плохие парни / Bad Hombres (2023) WEB-DL 1080p от селезень | D 6.94 GB ↑ 0 ↓ 0
2024-02-14 magnet Плохие парни / Bad Hombres (2023) WEB-DL 1080p от ELEKTRI4KA | D 3.66 GB ↑ 0 ↓ 0
2024-02-14 magnet Плохие парни / Bad Hombres (2023) WEB-DLRip от ELEKTRI4KA | D 1.46 GB ↑ 0 ↓ 0
2024-01-25 magnet Парни в лодке / The Boys in the Boat (2023) WEB-DL 1080p от New-Team | P | Jaskier 8.41 GB ↑ 0 ↓ 0
2023-12-04 magnet Плохие парни: Очень плохой праздник / Поганці: Зіпсоване свято / The Bad Guys: A Very Bad Holiday (2023) WEB-DL 1080p | D | Netflix | UKR 1.16 GB ↑ 0 ↓ 0

Комментарии


Зарегистрируйтесь чтобы добавить комментарий
Торрент клиент
byTorrent - программа для загрузки торрент-файлов.

Скачать byTorrent.exe (1,5 МБ)

Скачать byTorrent.zip (0,6 МБ)

Поддержи torrent.by
российских рублей
(300 российских рублей это 4$)

Обратная связь rss

End game ©