↑↓torrent.by
Поиск
Логин:  Регистрация
Пароль:

Немая ярость / Silent Night (2023) BDRip 720p от DoMiNo & селезень | D

download Скачать торрент-файл   magnet Магнитная ссылка Размер: 4.89 GB Добавлен: 2024-01-24 17:00
Пиры будут получены из сети DHT
Последний сидер был замечен 2024-02-25 11:06
Информация о фильме Название: Немая ярость Оригинальное название: Silent Night Год выхода: 2023 Жанр: Боевик, драма, криминал Режиссер: Джон Ву В ролях: Юэль Киннаман, Кид Кади, Арольд Торрес, Каталина Сандино Морено, Ёко Хамамура, Валерия Сантаэлла, Винни О’Брайэн, Акояни Чакон, Алехандро Монтерос, Анджелес Ву О фильме: В ходе бандитской разборки случайная пуля лишает счастливую семью маленького сына, а его отца — голоса. Спустя год усиленной подготовки папа мальчика становится кошмаром для врагов в любой перестрелке, погоне или рукопашной. В годовщину трагедии он намерен разыграть безостановочную симфонию возмездия всем, кто встанет у него на пути. Теперь его действия скажут всё громче любых слов. Страна: США, Мексика Продолжительность: 01:44:14 Перевод: Дублированный | Мосфильм-Мастер Cубтитры: Русские (Forced, Full), Английские Файл Формат: Matroska Качество: BDRip 720p Видео: 1280x640 at 23.976 fps, x264@L4.1, ~5173 kbps Аудио 1: AC3, 6 ch, ~448 kbps - | Русский | Аудио 2: E-AC3, 6 ch, ~448 kbps - | Русский | Аудио 3: AC3, 6 ch, ~640 kbps - | Английский | Формат субтитров: softsub (SRT) ***Рип от: -=DoMiNo=-
[+] M/IGeneral Unique ID : 136808012611441039664216614420031644655 (0x66EC43CAB8EE226F3965028CFDF6A3EF) Complete name : R:Silent.Night.2023.DUB.BDRip.720p.x264.seleZen.mkv Format : Matroska Format version : Version 4 File size : 4.89 GiB Duration : 1 h 44 min Overall bit rate : 6 712 kb/s Frame rate : 23.976 FPS Movie name : Silent.Night.2023.DUB.BDRip.720p.x264.seleZen Encoded date : 2024-01-24 08:27:11 UTC Writing application : mkvmerge v82.0 ('I'm The President') 64-bit Writing library : libebml v1.4.5 + libmatroska v1.7.1 Cover : Yes Attachments : cover.jpg / small_cover.jpg Video ID : 1 Format : AVC Format/Info : Advanced Video Codec Format profile : High@L4.1 Format settings : CABAC / 10 Ref Frames Format settings, CABAC : Yes Format settings, Reference : 10 frames Codec ID : V_MPEG4/ISO/AVC Duration : 1 h 44 min Bit rate : 5 173 kb/s Width : 1 280 pixels Height : 640 pixels Display aspect ratio : 2.000 Frame rate mode : Constant Frame rate : 23.976 (24000/1001) FPS Color space : YUV Chroma subsampling : 4:2:0 Bit depth : 8 bits Scan type : Progressive Bits/(Pixel*Frame) : 0.263 Stream size : 3.77 GiB (77%) Title : -=DoMiNo=- Writing library : x264 core 164 r3173 -DoMiNo Encoding settings : cabac=1 / ref=10 / deblock=1:-2:-2 / analyse=0x3:0x133 / me=umh / subme=10 / psy=1 / psy_rd=1.05:0.05 / mixed_ref=1 / me_range=32 / chroma_me=1 / trellis=2 / 8x8dct=1 / cqm=0 / deadzone=21,11 / fast_pskip=0 / chroma_qp_offset=-3 / threads=20 / lookahead_threads=5 / sliced_threads=0 / nr=0 / decimate=0 / interlaced=0 / bluray_compat=0 / constrained_intra=0 / bframes=10 / b_pyramid=2 / b_adapt=2 / b_bias=0 / direct=1 / weightb=1 / open_gop=0 / weightp=2 / keyint=250 / keyint_min=23 / scenecut=40 / intra_refresh=0 / rc_lookahead=60 / rc=crf / mbtree=0 / crf=18.0 / qcomp=0.60 / qpmin=0 / qpmax=69 / qpstep=4 / vbv_maxrate=50000 / vbv_bufsize=62500 / crf_max=0.0 / nal_hrd=none / filler=0 / ip_ratio=1.40 / pb_ratio=1.30 / aq=3:0.80 Language : English Default : Yes Forced : No Color range : Limited Color primaries : BT.709 Transfer characteristics : BT.709 Matrix coefficients : BT.709 Audio #1 ID : 2 Format : AC-3 Format/Info : Audio Coding 3 Commercial name : Dolby Digital Codec ID : A_AC3 Duration : 1 h 44 min Bit rate mode : Constant Bit rate : 448 kb/s Channel(s) : 6 channels Channel layout : L R C LFE Ls Rs Sampling rate : 48.0 kHz Frame rate : 31.250 FPS (1536 SPF) Compression mode : Lossy Stream size : 334 MiB (7%) Title : Дублированный | Мосфильм-Мастер Language : Russian Service kind : Complete Main Default : Yes Forced : No Audio #2 ID : 3 Format : E-AC-3 Format/Info : Enhanced AC-3 Commercial name : Dolby Digital Plus Codec ID : A_EAC3 Duration : 1 h 44 min Bit rate mode : Constant Bit rate : 448 kb/s Channel(s) : 6 channels Channel layout : L R C LFE Ls Rs Sampling rate : 48.0 kHz Frame rate : 31.250 FPS (1536 SPF) Compression mode : Lossy Stream size : 334 MiB (7%) Title : Дублированный | Мосфильм-Мастер Language : Russian Service kind : Complete Main Default : No Forced : No Audio #3 ID : 4 Format : AC-3 Format/Info : Audio Coding 3 Commercial name : Dolby Digital Codec ID : A_AC3 Duration : 1 h 44 min Bit rate mode : Constant Bit rate : 640 kb/s Channel(s) : 6 channels Channel layout : L R C LFE Ls Rs Sampling rate : 48.0 kHz Frame rate : 31.250 FPS (1536 SPF) Compression mode : Lossy Stream size : 477 MiB (10%) Title : Original Language : English Service kind : Complete Main Default : No Forced : No Text #1 ID : 5 Format : UTF-8 Codec ID : S_TEXT/UTF8 Codec ID/Info : UTF-8 Plain Text Duration : 1 h 42 min Bit rate : 7 b/s Frame rate : 0.015 FPS Count of elements : 95 Stream size : 5.47 KiB (0%) Title : Forced Language : Russian Default : No Forced : No Text #2 ID : 6 Format : UTF-8 Codec ID : S_TEXT/UTF8 Codec ID/Info : UTF-8 Plain Text Duration : 1 h 42 min Bit rate : 13 b/s Frame rate : 0.031 FPS Count of elements : 188 Stream size : 10.2 KiB (0%) Title : Full Language : Russian Default : No Forced : No Text #3 ID : 7 Format : UTF-8 Codec ID : S_TEXT/UTF8 Codec ID/Info : UTF-8 Plain Text Duration : 1 h 27 min Bit rate : 9 b/s Frame rate : 0.037 FPS Count of elements : 197 Stream size : 6.13 KiB (0%) Title : Full Language : English Default : No Forced : No Text #4 ID : 8 Format : UTF-8 Codec ID : S_TEXT/UTF8 Codec ID/Info : UTF-8 Plain Text Duration : 1 h 42 min Bit rate : 25 b/s Frame rate : 0.128 FPS Count of elements : 789 Stream size : 19.0 KiB (0%) Title : SDH Language : English Default : No Forced : No Menu 00:00:00.000 : en:Chapter 01 00:12:22.325 : en:Chapter 02 00:26:21.455 : en:Chapter 03 00:43:12.006 : en:Chapter 04 00:58:04.815 : en:Chapter 05 01:10:39.694 : en:Chapter 06 01:20:31.952 : en:Chapter 07 01:39:08.359 : en:Chapter 08
Релиз: Присоединяйся к: Кликай на баннеры.

Всего файлов в раздаче: 1 
Silent.Night.2023.DUB.BDRip.720p.x264.seleZen.mkv4.89 GB

Похожие раздачи по запросу - Немая
2024-01-24 magnet Немая ярость / Silent Night (2023) BDRip от MegaPeer | D 1.46 GB ↑ 0 ↓ 0
2023-12-28 magnet Немая ярость / Silent Night (2023) UHD WEB-DL-HEVC 2160p от селезень | 4K | SDR | D | Локализованная версия 9.07 GB ↑ 0 ↓ 0

Комментарии


Зарегистрируйтесь чтобы добавить комментарий
Торрент клиент
byTorrent - программа для загрузки торрент-файлов.

Скачать byTorrent.exe (1,5 МБ)

Скачать byTorrent.zip (0,6 МБ)

Поддержи torrent.by
российских рублей
(300 российских рублей это 4$)

Обратная связь rss

End game ©