↑↓torrent.by
Поиск
Логин:  Регистрация
Пароль:

Своя война. Шторм в пустыне (2022) BDRip 1080p от MegaPeer

download Скачать торрент-файл   magnet Магнитная ссылка Размер: 7.96 GB Раздают: 2 Качают: 0 Добавлен: 2024-01-24 17:00
Пиры будут получены из сети DHT
Последний сидер был замечен сегодня в 06:12
Информация о фильме Название: Своя война. Шторм в пустыне Год выхода: 2022 Жанр: Военный, драма, триллер, история Режиссер: Алексей Чадов В ролях: Алексей Чадов, Виталий Кищенко, Кристина Асмус, Виктор Сухоруков, Ола Кейру, Невия Тафара, Джалил Асретов, Никита Кологривый, Александр Красовский, Петр Королёв О фильме: Иван давно вернулся с войны. Но война не отпускает его: он продолжает в нее играть, что уже стоило ему отношений с женой, а теперь может стоить и жизни. Иван отправляется в Сирию под видом иностранного военного корреспондента по имени Джон. Страна: Россия Студия: Кинокомпания «22», Кинокомпания CTB / СТВ Продолжительность: 01:39:26 Перевод: Не требуется Файл Качество: BDRip 1080p | MTeam Формат: MKV Кодек: MPEG-4 AVC Видео: 1920x804 (2.40:1), 24 fps, MPEG-4 AVC ~ 10.6 Mbps avg, 0.285 bit/pixel Аудио: AC3, 48 kHz, 6 ch, ~448.00 kbps avg | русский | Аудио: E-AC3, 48 kHz, 6 ch, ~448.00 kbps avg | русский | Субтитры: Отсутствуют
[+] Инфо-файлОбщее Уникальный идентификатор : 249712436476857290168224359596930990690 (0xBBDCDDAAF1FBD343897E6BFDC0E58262) Полное имя : Svoya.voyna.Shtorm.v.pustyne.2022.1080p.BluRay.DD.5.1.x264-MegaPeer.mkv Формат : Matroska Версия формата : Version 4 Размер файла : 7,96 Гбайт Продолжительность : 1 ч. 39 м. Общий поток : 11,5 Мбит/сек Частота кадров : 24,000 кадра/сек Название фильма : Своя война. Шторм в пустыне (2022) от MegaPeer Дата кодирования : 2024-01-24 05:11:55 UTC Программа кодирования : mkvmerge v15.0.0 ('Duel with the Devil') 64-bit Библиотека кодирования : libebml v1.3.5 + libmatroska v1.4.5 Обложка : Yes Attachments : cover.jpg Видео Идентификатор : 1 Формат : AVC Формат/Информация : Advanced Video Codec Профиль формата : High@L4.1 Настройки формата : CABAC / 5 Ref Frames Параметр CABAC формата : Да Параметр RefFrames формата : 5 кадров Идентификатор кодека : V_MPEG4/ISO/AVC Продолжительность : 1 ч. 39 м. Битрейт : 10,6 Мбит/сек Ширина : 1 920 пикселей Высота : 804 пикселя Соотношение сторон : 2,40:1 Режим частоты кадров : Постоянный Частота кадров : 24,000 кадра/сек Цветовое пространство : YUV Субдискретизация насыщенности : 4:2:0 Битовая глубина : 8 бит Тип развёртки : Прогрессивная Бит/(Пиксели*Кадры) : 0.285 Размер потока : 7,34 Гбайт (92%) Библиотека кодирования : x264 core 157 r2938 2b00a84 TnP@MTeam Mod Настройки программы : cabac=1 / ref=5 / deblock=1:-3:-3 / analyse=0x3:0x133 / me=umh / subme=10 / psy=1 / psy_rd=1.05:0.00 / mixed_ref=1 / me_range=32 / chroma_me=1 / trellis=2 / 8x8dct=1 / cqm=0 / deadzone=21,11 / fast_pskip=0 / chroma_qp_offset=-2 / threads=12 / lookahead_threads=2 / sliced_threads=0 / nr=0 / decimate=0 / interlaced=0 / bluray_compat=0 / constrained_intra=0 / bframes=8 / b_pyramid=2 / b_adapt=2 / b_bias=0 / direct=3 / weightb=1 / open_gop=0 / weightp=2 / keyint=250 / keyint_min=24 / scenecut=40 / intra_refresh=0 / rc_lookahead=250 / rc=crf / mbtree=0 / crf=16.8 / qcomp=0.60 / qpmin=0 / qpmax=69 / qpstep=4 / vbv_maxrate=62500 / vbv_bufsize=78125 / crf_max=0.0 / nal_hrd=none / filler=0 / ip_ratio=1.30 / pb_ratio=1.20 / aq=3:0.80 Язык : English Default : Да Forced : Нет Цветовой диапазон : Limited Основные цвета : BT.709 Коэффициенты матрицы : BT.709 Аудио #1 Идентификатор : 2 Формат : AC-3 Формат/Информация : Audio Coding 3 Коммерческое название : Dolby Digital Идентификатор кодека : A_AC3 Продолжительность : 1 ч. 39 м. Вид битрейта : Постоянный Битрейт : 448 Кбит/сек Каналы : 6 каналов Channel layout : L R C LFE Ls Rs Частота : 48,0 КГц Частота кадров : 31,250 кадров/сек (1536 SPF) Метод сжатия : С потерями Размер потока : 319 Мбайт (4%) Заголовок : Кинопоиск HD Язык : Russian Service kind : Complete Main Default : Да Forced : Да Аудио #2 Идентификатор : 3 Формат : E-AC-3 Формат/Информация : Enhanced AC-3 Коммерческое название : Dolby Digital Plus Идентификатор кодека : A_EAC3 Продолжительность : 1 ч. 39 м. Вид битрейта : Постоянный Битрейт : 448 Кбит/сек Каналы : 6 каналов Channel layout : L R C LFE Ls Rs Частота : 48,0 КГц Частота кадров : 31,250 кадров/сек (1536 SPF) Метод сжатия : С потерями Размер потока : 319 Мбайт (4%) Заголовок : Кинопоиск HD Язык : Russian Service kind : Complete Main Default : Нет Forced : Нет Меню 00:00:00.000 : en:Chapter 01 00:10:23.000 : en:Chapter 02 00:20:13.958 : en:Chapter 03 00:29:17.208 : en:Chapter 04 00:39:12.333 : en:Chapter 05 00:49:09.083 : en:Chapter 06 00:59:33.167 : en:Chapter 07 01:06:29.625 : en:Chapter 08 01:15:41.250 : en:Chapter 09 01:24:34.708 : en:Chapter 10
Релиз:

Всего файлов в раздаче: 1 
Svoya.voyna.Shtorm.v.pustyne.2022.1080p.BluRay.DD.5.1.x264-MegaPeer.mkv7.96 GB

Похожие раздачи по запросу - Своя
2024-02-03 magnet Своя война. Шторм в пустыне (2022) HDRip-AVC от DoMiNo 1.70 GB ↑ 0 ↓ 0
2024-02-02 magnet Своя война. Шторм в пустыне (2022) BDRip 1080p от ExKinoRay 7.90 GB ↑ 0 ↓ 0
2024-01-24 magnet Своя война. Шторм в пустыне (2022) HDRip от MegaPeer 1.46 GB ↑ 1 ↓ 0

Комментарии


Зарегистрируйтесь чтобы добавить комментарий
Торрент клиент
byTorrent - программа для загрузки торрент-файлов.

Скачать byTorrent.exe (1,5 МБ)

Скачать byTorrent.zip (0,6 МБ)

Поддержи torrent.by
российских рублей
(300 российских рублей это 4$)

Обратная связь rss

End game ©