↑↓torrent.by
Поиск
Логин:  Регистрация
Пароль:

Час истины / The Vanished / Hour of Lead (2020) HDRip-AVC от DoMiNo & селезень | D

download Скачать торрент-файл   magnet Магнитная ссылка Размер: 1.86 GB Добавлен: 2024-01-25 05:00
Пиры будут получены из сети DHT
Последний сидер был замечен 2024-02-11 09:34
Информация о фильме Название: Час истины Оригинальное название: The Vanished / Hour of Lead Год выхода: 2020 Жанр: Ужасы, боевик, триллер, криминал Режиссер: Питер Фачинелли В ролях: Энн Хеч, Томас Джейн, Джейсон Патрик, Алекс Хейдон, Питер Фачинелли, Алексей Арчер, Кристофер Венте, Джон Д. Хикман, Митчелл Л. Джонсон, Кейкей Хейм О фильме: У супружеской пары, остановившейся в кемпинге на берегу реки, бесследно пропадает дочь. Полиция не в силах отыскать девочку, но муж с женой не остановятся ни перед чем, чтобы найти своего ребенка. Страна: США Студия: Adonais Productions, Benay's Birds & Animals, Brickell & Broadbridge International Продолжительность: 01:55:00 Перевод: Дублированный | Нарышкин Субтитры: Русские (Full), Английские (Full) Файл Формат: Matroska Качество: HDRip-AVC Видео: 1152x482 at 23.976 fps, x264@L4.1, ~1861 kbps Аудио: AC3, 6 ch, ~448 kbps - | Русский | Формат субтитров: softsub (SRT) ***Рип от: -=DoMiNo=-
[+] M/IGeneral Unique ID : 307632909875599819404996450493676624357 (0xE76FF17C29F103EDA56C77D3228B99E5) Complete name : I:The.Vanished.2020.DUB.x264.seleZen.mkv Format : Matroska Format version : Version 4 File size : 1.86 GiB Duration : 1 h 55 min Overall bit rate : 2 311 kb/s Frame rate : 23.976 FPS Movie name : The.Vanished.2020.DUB.x264.seleZen Encoded date : 2024-01-24 12:40:54 UTC Writing application : mkvmerge v82.0 ('I'm The President') 64-bit Writing library : libebml v1.4.5 + libmatroska v1.7.1 Cover : Yes Attachments : cover.jpg / small_cover.jpg Video ID : 1 Format : AVC Format/Info : Advanced Video Codec Format profile : High@L4.1 Format settings : CABAC / 12 Ref Frames Format settings, CABAC : Yes Format settings, Reference : 12 frames Codec ID : V_MPEG4/ISO/AVC Duration : 1 h 55 min Bit rate : 1 861 kb/s Width : 1 152 pixels Height : 482 pixels Display aspect ratio : 2.40:1 Frame rate mode : Constant Frame rate : 23.976 (24000/1001) FPS Color space : YUV Chroma subsampling : 4:2:0 Bit depth : 8 bits Scan type : Progressive Bits/(Pixel*Frame) : 0.140 Stream size : 1.49 GiB (81%) Title : -=DoMiNo=- Writing library : x264 core 164 r3173 -DoMiNo Encoding settings : cabac=1 / ref=12 / deblock=1:-2:-2 / analyse=0x3:0x133 / me=umh / subme=10 / psy=1 / psy_rd=1.05:0.05 / mixed_ref=1 / me_range=32 / chroma_me=1 / trellis=2 / 8x8dct=1 / cqm=0 / deadzone=21,11 / fast_pskip=0 / chroma_qp_offset=-3 / threads=17 / lookahead_threads=3 / sliced_threads=0 / nr=0 / decimate=0 / interlaced=0 / bluray_compat=0 / constrained_intra=0 / bframes=12 / b_pyramid=2 / b_adapt=2 / b_bias=0 / direct=1 / weightb=1 / open_gop=0 / weightp=2 / keyint=250 / keyint_min=23 / scenecut=40 / intra_refresh=0 / rc_lookahead=60 / rc=crf / mbtree=0 / crf=18.5 / qcomp=0.60 / qpmin=0 / qpmax=69 / qpstep=4 / vbv_maxrate=50000 / vbv_bufsize=62500 / crf_max=0.0 / nal_hrd=none / filler=0 / ip_ratio=1.40 / pb_ratio=1.30 / aq=3:0.80 Language : English Default : Yes Forced : No Audio ID : 2 Format : AC-3 Format/Info : Audio Coding 3 Commercial name : Dolby Digital Codec ID : A_AC3 Duration : 1 h 55 min Bit rate mode : Constant Bit rate : 448 kb/s Channel(s) : 6 channels Channel layout : L R C LFE Ls Rs Sampling rate : 48.0 kHz Frame rate : 31.250 FPS (1536 SPF) Compression mode : Lossy Stream size : 369 MiB (19%) Title : DUB-Нарышкин Language : Russian Service kind : Complete Main Default : Yes Forced : No Text #1 ID : 3 Format : UTF-8 Codec ID : S_TEXT/UTF8 Codec ID/Info : UTF-8 Plain Text Duration : 1 h 51 min Bit rate : 79 b/s Frame rate : 0.189 FPS Count of elements : 1266 Stream size : 65.3 KiB (0%) Title : Full Language : Russian Default : No Forced : No Text #2 ID : 4 Format : UTF-8 Codec ID : S_TEXT/UTF8 Codec ID/Info : UTF-8 Plain Text Duration : 1 h 49 min Bit rate : 50 b/s Frame rate : 0.203 FPS Count of elements : 1336 Stream size : 40.4 KiB (0%) Title : Full Language : English Default : No Forced : No Menu 00:00:00.000 : Chapter 01 00:12:00.261 : Chapter 02 00:23:21.609 : Chapter 03 00:34:12.968 : Chapter 04 00:45:42.365 : Chapter 05 00:57:14.765 : Chapter 06 01:09:02.347 : Chapter 07 01:20:31.994 : Chapter 08 01:32:15.405 : Chapter 09 01:43:08.808 : Chapter 10
Релиз: Присоединяйся к: Кликай на баннеры.

Всего файлов в раздаче: 1 
The.Vanished.2020.DUB.x264.seleZen.mkv1.86 GB

Похожие раздачи по запросу - Час
2024-02-13 magnet Комендантский час 2 / Martial Law II: Undercover (1991) BDRip-AVC от DoMiNo | P 2.18 GB ↑ 0 ↓ 0
2023-04-28 magnet Друг на час [01-08 из 08] (2023) WEBRip от Files-x 4.56 GB ↑ 0 ↓ 0
2021-05-22 magnet За час до рассвета [01-16 из 16] (2021) WEB-DLRip 9.37 GB ↑ 0 ↓ 0
2021-05-22 magnet За час до рассвета [01-16 из 16] (2021) WEB-DLRip-AVC от Files-х 9.43 GB ↑ 1 ↓ 0
2021-05-22 magnet За час до рассвета [01-16 из 16] (2021) WEB-DL 720p от Files-x 11.30 GB ↑ 0 ↓ 0

Комментарии

prikolito
Начало неплохое, потом действие скатывается в полную бредятину, но в конце все внезапно разруливается оригинальным твистом. Еслиб не было так затянуто, то прям бы рекомендовал к просмотру, а так, ну на 6/10

var
Нормальный- смотреть можно! да и концовка интересная спойлерТак гнать и не сигналить))


Зарегистрируйтесь чтобы добавить комментарий
Торрент клиент
byTorrent - программа для загрузки торрент-файлов.

Скачать byTorrent.exe (1,5 МБ)

Скачать byTorrent.zip (0,6 МБ)

Поддержи torrent.by
российских рублей
(300 российских рублей это 4$)

Обратная связь rss

End game ©