↑↓torrent.by
Поиск
Логин:  Регистрация
Пароль:

Saltatio Mortis - Des Konigs Henker (2005) FLAC

download Скачать торрент-файл   magnet Магнитная ссылка Размер: 459.13 MB Добавлен: 2024-01-25 11:00
Пиры будут получены из сети DHT
Последний сидер был замечен 2024-01-25 11:00
Исполнитель: Saltatio Mortis Название: Des Konigs Henker Издатель: Irond Номер диска по каталогу: CD 05-1061 Источник: Диск из личной коллекции Год: 2005 Жанр: Folk-Metal Страна: Германия Кодек: FLAC Битрейт аудио: Lossless Формат: image+.cue+.log Продолжительность: 00:50:13 Официальный сайт
[+] Трек-лист01. Des Konigs Henker 02. Salz Der Erde 03. Rette Mich 04. Verfuhrer 05. Vergiss Mein Nicht 06. Tote Augen 07. Tritt Ein 08. Mondlicht 09. Ecce Gratum 10. Keines Herren Knecht 11. Fur Dich 12. Die Hoffnung Stirbt Zuletzt 13. Equinox (Unplugged) (Bonus Track)
[+] Отчёт ЕАСExact Audio Copy V1.6 from 23. October 2020 Отчёт EAC об извлечении, выполненном 31. декабря 2023, 16:04 SALTATIO MORTIS / "Des Konigs Henker" Дисковод: ASUS SBW-06C1S-U Adapter: 0 ID: 0 Режим чтения : Достоверность Использование точного потока : Да Отключение кэша аудио : Да Использование указателей C2 : Нет Коррекция смещения при чтении : 48 Способность читать области Lead-in и Lead-out : Нет Заполнение пропущенных сэмплов тишиной : Да Удаление блоков с тишиной в начале и конце : Нет При вычислениях CRC использовались нулевые сэмплы : Да Интерфейс : Установленный внешний ASPI-интерфейс Выходной формат : Пользовательский кодировщик Выбранный битрейт : 1024 kBit/s Качество : Высокий Добавление ID3-тега : Нет Утилита сжатия : C:Program Files (x86)Exact Audio CopyFlacflac.exe Дополнительные параметры : -8 -V -T "TITLE=%title%" -T "ARTIST=%artist%" -T "ALBUMARTIST=%albumartist%" -T "ALBUM=%albumtitle%" -T "DATE=%year%" -T "TRACKNUMBER=%tracknr%" -T "TRACKTOTAL=%numtracks%" -T "GENRE=%genre%" -T "COMMENT=%comment%" -T "PERFORMER=%albuminterpret%" -T "COMPOSER=%composer%" %source% -o %dest% TOC извлечённого CD Трек | Старт | Длительность | Начальный сектор | Конечный сектор --------------------------------------------------------------------- 1 | 0:00.00 | 4:34.29 | 0 | 20578 2 | 4:34.29 | 3:38.38 | 20579 | 36966 3 | 8:12.67 | 3:56.25 | 36967 | 54691 4 | 12:09.17 | 3:55.35 | 54692 | 72351 5 | 16:04.52 | 3:15.10 | 72352 | 86986 6 | 19:19.62 | 5:04.34 | 86987 | 109820 7 | 24:24.21 | 4:03.67 | 109821 | 128112 8 | 28:28.13 | 3:48.05 | 128113 | 145217 9 | 32:16.18 | 2:45.14 | 145218 | 157606 10 | 35:01.32 | 3:56.55 | 157607 | 175361 11 | 38:58.12 | 3:37.35 | 175362 | 191671 12 | 42:35.47 | 4:00.41 | 191672 | 209712 13 | 46:36.13 | 3:36.66 | 209713 | 225978 Характеристики диапазона извлечения и сообщения об ошибках Выбранный диапазон Имя файла D:RazdachiAudioSaltatio Mortis - 2005 - Des Konigs Henker SALTATIO MORTIS - ''Des Konigs Henker''.wav Пиковый уровень 98.8 % Скорость извлечения 14.1 X Качество диапазона 100.0 % CRC теста FBCF8E84 CRC копии FBCF8E84 Копирование... OK Ошибок не произошло AccurateRip: сводка Трек 1 точность не определена (достоверность 6) , AccurateRip вернул (AR v2) Трек 2 точность не определена (достоверность 6) , AccurateRip вернул (AR v2) Трек 3 точность не определена (достоверность 6) , AccurateRip вернул (AR v2) Трек 4 точность не определена (достоверность 6) , AccurateRip вернул (AR v2) Трек 5 точность не определена (достоверность 6) , AccurateRip вернул (AR v2) Трек 6 точность не определена (достоверность 6) , AccurateRip вернул (AR v2) Трек 7 точность не определена (достоверность 6) , AccurateRip вернул (AR v2) Трек 8 точность не определена (достоверность 6) , AccurateRip вернул (AR v2) Трек 9 точность не определена (достоверность 6) , AccurateRip вернул (AR v2) Трек 10 точность не определена (достоверность 6) , AccurateRip вернул (AR v2) Трек 11 точность не определена (достоверность 6) , AccurateRip вернул (AR v2) Трек 12 точность не определена (достоверность 6) , AccurateRip вернул (AR v2) Трек 13 точность не определена (достоверность 6) , AccurateRip вернул (AR v2) Ни один трек не прошёл проверки на точность В вашей базе может быть иной вариант штамповки диска Конец отчёта ---- CUETools DB Plugin V2.1.6 found Submit result: already submitted Track | CTDB Status 1 | (26/26) Accurately ripped 2 | (26/26) Accurately ripped 3 | (26/26) Accurately ripped 4 | (26/26) Accurately ripped 5 | (26/26) Accurately ripped 6 | (26/26) Accurately ripped 7 | (26/26) Accurately ripped 8 | (26/26) Accurately ripped 9 | (26/26) Accurately ripped 10 | (26/26) Accurately ripped 11 | (26/26) Accurately ripped 12 | (26/26) Accurately ripped 13 | (26/26) Accurately ripped ==== Контрольная сумма отчёта 0D71072559B32D6BF599F4F3E07565B903B9AD41906363AD2EBA710483349AD2 ====
Дополнительная информация: Saltatio Mortis (с лат. — «Пляска Смерти») — немецкая музыкальная группа, основанная в 2000 году, играющая в стиле Folk Metal. Время раздачи: В дневное время.

Всего файлов в раздаче: 18 
SALTATIO MORTIS - ''Des Konigs Henker''.cue2.26 kB
SALTATIO MORTIS - ''Des Konigs Henker''.flac365.90 MB
SALTATIO MORTIS - ''Des Konigs Henker''.log9.86 kB
Scans\Scan 01.jpg3.79 MB
Scans\Scan 02.jpg7.01 MB
Scans\Scan 03.jpg7.55 MB
Scans\Scan 04.jpg7.60 MB
Scans\Scan 05.jpg6.98 MB
Scans\Scan 06.jpg7.29 MB
Scans\Scan 07.jpg7.26 MB
Показать все файлы

Похожие раздачи по запросу - Saltatio
2024-01-26 magnet Saltatio Mortis - Das Schwatze IXI (2013) FLAC 529.39 MB ↑ 0 ↓ 0
2024-01-25 magnet Saltatio Mortis - Erwachen (2004) FLAC 470.74 MB ↑ 0 ↓ 0

Комментарии


Зарегистрируйтесь чтобы добавить комментарий
Торрент клиент
byTorrent - программа для загрузки торрент-файлов.

Скачать byTorrent.exe (1,5 МБ)

Скачать byTorrent.zip (0,6 МБ)

Поддержи torrent.by
российских рублей
(300 российских рублей это 4$)

Обратная связь rss

End game ©