↑↓torrent.by
Поиск
Логин:  Регистрация
Пароль:

Децибел / Desibel / Decibel (2022) HybridRip-AVC от New-Team | D

download Скачать торрент-файл   magnet Магнитная ссылка Размер: 2.10 GB Добавлен: 2024-01-25 17:00
Пиры будут получены из сети DHT
Последний сидер был замечен 2024-01-26 07:04
Децибел / Desibel / Decibel Год выпуска: 2022 Выпущено: Южная Корея, East Dream Synopex, Megabox Plus M Жанр: боевик, триллер, детектив Режиссер: Хван Ин Хо / Hwang In Ho В ролях: Ким Рэ-вон, Ли Джон-сок, Чон Сан-хун, Пак Пён-ын, Ли Сан-хи, Чо Даль-хван, Чха Ын-у, Ли Мин-ги, Хан Мин-ёп, У Джи-хён О фильме: Командиру военно-морского флота звонит аноним, и утверждает, что заложил бомбы в местах скопления людей, в том числе на футбольном стадионе и в аквапарке. Заряды представляют собой «звуковые бомбы», которые взорвутся, когда уровень окружающего звука превысит 100 децибел. Эта террористическая атака происходит после инцидента, произошедшего год назад на подводной лодке, и важные фигуры, такие как командир подводной лодки, репортер и член Командования поддержки безопасности обороны, собираются вместе, чтобы попытаться остановить теракт. Продолжительность: 01:49:59 Перевод: Профессиональный (полное дублирование) | Позитив Субтитры: русские, английские Раздача от: Автор релиза: JNS82. Формат: MKV Качество: HybridRip-AVC Видео: MPEG-4 AVC, 1900 Кбит/с, 1024x428 Аудио #1: AC3, 6 ch, 448 Кбит/с | RUS | Аудио #2: AC3, 6 ch, 384 Кбит/с | KOR |
[+] MediaInfoОбщее Уникальный идентификатор : 269313678484334357300303066049541357432 (0xCA9BED83292CD7F01C58830D2EB4BF78) Полное имя : D:TorrentsDecibel.2022.HybridRip-AVC_от New-Team_JNS82.mkv Формат : Matroska Версия формата : Version 4 Размер файла : 2,10 Гбайт Продолжительность : 1 ч. 50 м. Общий поток : 2 731 Кбит/сек Название фильма : Decibel.2022.HybridRip-AVC_от New-Team_JNS82 Дата кодирования : UTC 2024-01-25 10:52:59 Программа кодирования : mkvmerge v79.0 ('Funeral Pyres') 64-bit Библиотека кодирования : libebml v1.4.4 + libmatroska v1.7.1 Видео Идентификатор : 1 Формат : AVC Формат/Информация : Advanced Video Codec Профиль формата : High@L4.1 Настройки формата : CABAC / 12 Ref Frames Параметр CABAC формата : Да Параметр RefFrames формата : 12 кадров Идентификатор кодека : V_MPEG4/ISO/AVC Продолжительность : 1 ч. 49 м. Битрейт : 1 900 Кбит/сек Ширина : 1 024 пикселя Высота : 428 пикселей Соотношение сторон : 2,40:1 Режим частоты кадров : Постоянный Частота кадров : 23,976 (24000/1001) кадра/сек Цветовое пространство : YUV Субдискретизация насыщенности : 4:2:0 Битовая глубина : 8 бит Тип развёртки : Прогрессивная Бит/(Пиксели*Кадры) : 0.181 Размер потока : 1,46 Гбайт (69%) Библиотека кодирования : x264 core 164 r3156+57M NewTeam t_mod_New Настройки программы : cabac=1 / ref=12 / deblock=1:-3:-3 / analyse=0x3:0x133 / me=umh / subme=10 / psy=1 / fade_compensate=0.00 / psy_rd=1.01:0.03 / mixed_ref=1 / me_range=32 / chroma_me=1 / trellis=2 / 8x8dct=1 / cqm=0 / deadzone=21,11 / fast_pskip=0 / chroma_qp_offset=-3 / threads=13 / lookahead_threads=3 / sliced_threads=0 / nr=0 / decimate=0 / interlaced=0 / bluray_compat=0 / constrained_intra=0 / fgo=0 / bframes=10 / b_pyramid=2 / b_adapt=2 / b_bias=0 / direct=3 / weightb=1 / open_gop=0 / weightp=2 / keyint=250 / keyint_min=23 / scenecut=40 / intra_refresh=0 / rc_lookahead=40 / rc=2pass / mbtree=0 / bitrate=1900 / ratetol=1.0 / qcomp=0.60 / qpmin=0:0:0 / qpmax=69:69:69 / qpstep=4 / cplxblur=20.0 / qblur=0.5 / vbv_maxrate=50000 / vbv_bufsize=62500 / nal_hrd=none / filler=0 / ip_ratio=1.40 / pb_ratio=1.30 / aq=1:1.00 / aq-sensitivity=10.00 / aq-factor=1.00:1.00:1.00 / aq2=0 / aq3=0 Язык : English Default : Да Forced : Нет Аудио #1 Идентификатор : 2 Формат : AC-3 Формат/Информация : Audio Coding 3 Коммерческое название : Dolby Digital Идентификатор кодека : A_AC3 Продолжительность : 1 ч. 50 м. Вид битрейта : Постоянный Битрейт : 448 Кбит/сек Каналы : 6 каналов Channel layout : L R C LFE Ls Rs Частота : 48,0 КГц Частота кадров : 31,250 кадров/сек (1536 SPF) Метод сжатия : С потерями Размер потока : 353 Мбайт (16%) Заголовок : DUB - Позитив Язык : Russian Service kind : Complete Main Default : Да Forced : Нет Аудио #2 Идентификатор : 3 Формат : AC-3 Формат/Информация : Audio Coding 3 Коммерческое название : Dolby Digital Идентификатор кодека : A_AC3 Продолжительность : 1 ч. 49 м. Вид битрейта : Постоянный Битрейт : 384 Кбит/сек Каналы : 6 каналов Channel layout : L R C LFE Ls Rs Частота : 48,0 КГц Частота кадров : 31,250 кадров/сек (1536 SPF) Метод сжатия : С потерями Размер потока : 302 Мбайт (14%) Заголовок : Original Язык : Korean Service kind : Complete Main Default : Нет Forced : Нет Текст #1 Идентификатор : 4 Формат : UTF-8 Идентификатор кодека : S_TEXT/UTF8 Идентификатор кодека/Информация : UTF-8 Plain Text Продолжительность : 1 ч. 42 м. Битрейт : 72 бит/сек Count of elements : 1013 Размер потока : 54,5 Кбайт (0%) Заголовок : Язык : Russian Default : Нет Forced : Нет Текст #2 Идентификатор : 5 Формат : UTF-8 Идентификатор кодека : S_TEXT/UTF8 Идентификатор кодека/Информация : UTF-8 Plain Text Продолжительность : 1 ч. 42 м. Битрейт : 42 бит/сек Count of elements : 1225 Размер потока : 31,5 Кбайт (0%) Заголовок : Язык : English Default : Нет Forced : Нет Меню 00:00:00.000 : en:Chapter 01 00:08:00.397 : en:Chapter 02 00:18:47.168 : en:Chapter 03 00:28:40.177 : en:Chapter 04 00:37:01.803 : en:Chapter 05 00:49:41.812 : en:Chapter 06 00:58:42.561 : en:Chapter 07 01:07:00.558 : en:Chapter 08 01:15:43.205 : en:Chapter 09 01:25:34.588 : en:Chapter 10 01:34:24.868 : en:Chapter 11 01:43:29.078 : en:Chapter 12
[+] Source info Исходник | Decibel.2022.Hybrid.1080p.BluRay.DDP.5.1.x264-c0kE_Kyle Source #1: FRA Blu-ray | Koba Films Source #2: NF WEB-DL ПРИМЕЧАНИЕ: * Французский хардсаб удален или заменен вставками из WEB-DL от Netflix с помощью MaskTools v2, Overlay и различных фильтров. * Удалены финальные титры, сделанные для французского дубляжа. * Удалены некоторые заставки в интро и в некоторых сценах. * Спасибо miss_p1nky@avistaz за английские субтитры и PTer за китайские субтитры. * Спасибо Nick007, Red, Narkyy, DLS, rose, Trashmen, quangr4ge, cqustlym и всем участникам c0kE. * Приятного просмотра! NOTES: * Hardcoded French subtitles removed or replaced with Korean from NF, used MaskTools v2, Overlay and various filters. * End Credits for the French dub are removed. * Debanded for Intro & some scenes. * Thanks to miss_p1nky@avistaz for english subtitles and PTer for Chinese subtitles. * Thanks to Nick007, Red, Narkyy, DLS, rose, Trashmen, quangr4ge, cqustlym and all c0kE's members. * Enjoy!

Всего файлов в раздаче: 1 
Decibel.2022.HybridRip-AVC_от New-Team_JNS82.mkv2.10 GB

Похожие раздачи по запросу - Децибел
2024-01-25 magnet Децибел / Desibel / Decibel (2022) BDRip-AVC от DoMiNo & селезень | D, A 2.18 GB ↑ 0 ↓ 0

Комментарии


Зарегистрируйтесь чтобы добавить комментарий
Торрент клиент
byTorrent - программа для загрузки торрент-файлов.

Скачать byTorrent.exe (1,5 МБ)

Скачать byTorrent.zip (0,6 МБ)

Поддержи torrent.by
российских рублей
(300 российских рублей это 4$)

Обратная связь rss

End game ©