↑↓torrent.by
Поиск
Логин:  Регистрация
Пароль:

Миграция / Переліт / Migration (2023) WEB-DL 1080p | D | Line | UKR

download Скачать торрент-файл   magnet Магнитная ссылка Размер: 5.14 GB Добавлен: 2024-01-25 17:00
Пиры будут получены из сети DHT
Последний сидер был замечен 2024-02-17 22:37
Информация о фильме Название: Миграция Оригинальное название: Migration Год выхода: 2023 Жанр: мультфильм, приключения, комедия, фэнтези Режиссер: Бенжамин Реннер, Гейло Хомси В ролях: Кумэйл Нанджиани, Треси Газаль, Элизабет Бэнкс, Каспар Дженнингс, Изабела Мерсед, Дэнни ДеВито, Кэрол Кейн, Аквафина, Кигэн-Майкл Ки, Дэвид Митчелл О фильме: Семейство крякв находится в затруднительном положении: пока отец Мак Маллард доволен тем, что его родные всегда будут в безопасности, живя в пруду в Новой Англии, мама Пэм стремится встряхнуть их и показать своим детям — сыну-подростку Даксу и маленькой дочке Гвен — каким большим и многогранным может быть мир. После того, как семейство мигрирующих уток приземляется на их пруд с захватывающими рассказами о далёких местах, Пэм уговаривает Мака отправиться в семейное путешествие через Нью-Йорк на тропическую Ямайку. Но всё было бы слишком просто, если бы их планам суждено было сбыться. Страна: США, Франция, Канада Студия: Illumination Entertainment, Universal Pictures Продолжительность: 01:22:55 Перевод: Дублированный | Line (Украинский) Файл Кодек: x.264 Качество: WEB-DL 1080p Видео: AVC, 1920x1080 (16:9), 23.976 fps, 8 000 kb/s Аудио 1: AC3, 48.0 kHz, 2 ch, 192 kb/s | UKR Аудио 2: E-AC3 JOC, 48.0 kHz, 6 ch, 768 kb/s | ENG Субтитры: английские (full, SDH) Трейлер | Сэмпл
[+] MIGeneral Unique ID : 80144887951537821136817467754836409022 (0x3C4B580DBB8AD28002651797BB9C3ABE) Complete name : Migration.2023.1080p.WEB-DL.UKR.ENG.mkv Format : Matroska Format version : Version 4 File size : 5.14 GiB Duration : 1 h 22 min Overall bit rate : 8 871 kb/s Encoded date : UTC 2024-01-24 15:32:07 Writing application : mkvmerge v80.0 ('Roundabout') 64-bit Writing library : libebml v1.4.4 + libmatroska v1.7.1 Video ID : 1 Format : AVC Format/Info : Advanced Video Codec Format profile : High@L4 Format settings : CABAC / 4 Ref Frames Format settings, CABAC : Yes Format settings, Reference frames : 4 frames Codec ID : V_MPEG4/ISO/AVC Duration : 1 h 22 min Bit rate : 8 000 kb/s Width : 1 920 pixels Height : 1 080 pixels Display aspect ratio : 16:9 Frame rate mode : Constant Frame rate : 23.976 (24000/1001) FPS Color space : YUV Chroma subsampling : 4:2:0 Bit depth : 8 bits Scan type : Progressive Bits/(Pixel*Frame) : 0.161 Stream size : 4.58 GiB (89%) Writing library : x264 core 164 r3094 bfc87b7 Encoding settings : cabac=1 / ref=4 / deblock=1:-1:-1 / analyse=0x3:0x133 / me=umh / subme=9 / psy=1 / psy_rd=1.00:0.15 / mixed_ref=1 / me_range=16 / chroma_me=1 / trellis=2 / 8x8dct=1 / cqm=0 / deadzone=21,11 / fast_pskip=1 / chroma_qp_offset=-3 / threads=12 / lookahead_threads=1 / sliced_threads=0 / nr=0 / decimate=1 / interlaced=0 / bluray_compat=0 / stitchable=1 / constrained_intra=0 / bframes=3 / b_pyramid=2 / b_adapt=2 / b_bias=0 / direct=3 / weightb=1 / open_gop=0 / weightp=2 / keyint=48 / keyint_min=4 / scenecut=0 / intra_refresh=0 / rc_lookahead=48 / rc=abr / mbtree=1 / bitrate=8000 / ratetol=1.0 / qcomp=0.60 / qpmin=0 / qpmax=69 / qpstep=4 / vbv_maxrate=8800 / vbv_bufsize=16000 / nal_hrd=none / filler=0 / ip_ratio=1.40 / aq=1:1.00 Language : English Default : Yes Forced : No Color range : Limited Color primaries : BT.709 Transfer characteristics : BT.709 Matrix coefficients : BT.709 Audio #1 ID : 2 Format : AC-3 Format/Info : Audio Coding 3 Commercial name : Dolby Digital Codec ID : A_AC3 Duration : 1 h 22 min Bit rate mode : Constant Bit rate : 192 kb/s Channel(s) : 2 channels Channel layout : L R Sampling rate : 48.0 kHz Frame rate : 31.250 FPS (1536 SPF) Compression mode : Lossy Stream size : 114 MiB (2%) Language : Ukrainian Service kind : Complete Main Default : Yes Forced : Yes Audio #2 ID : 3 Format : E-AC-3 JOC Format/Info : Enhanced AC-3 with Joint Object Coding Commercial name : Dolby Digital Plus with Dolby Atmos Codec ID : A_EAC3 Duration : 1 h 22 min Bit rate mode : Constant Bit rate : 768 kb/s Channel(s) : 6 channels Channel layout : L R C LFE Ls Rs Sampling rate : 48.0 kHz Frame rate : 31.250 FPS (1536 SPF) Compression mode : Lossy Delay relative to video : 1 s 0 ms Stream size : 455 MiB (9%) Language : English Service kind : Complete Main Default : Yes Forced : No Complexity index : 16 Number of dynamic objects : 15 Bed channel count : 1 channel Bed channel configuration : LFE Text #1 ID : 4 Format : UTF-8 Codec ID : S_TEXT/UTF8 Codec ID/Info : UTF-8 Plain Text Duration : 1 h 16 min Bit rate : 59 b/s Count of elements : 1372 Stream size : 33.7 KiB (0%) Language : English Default : No Forced : No Text #2 ID : 5 Format : UTF-8 Codec ID : S_TEXT/UTF8 Codec ID/Info : UTF-8 Plain Text Duration : 1 h 22 min Bit rate : 71 b/s Count of elements : 1813 Stream size : 43.4 KiB (0%) Title : SDH Language : English Default : No Forced : No Menu 00:00:00.000 : en:Chapter 01 00:06:17.085 : en:Chapter 02 00:11:23.933 : en:Chapter 03 00:14:48.763 : en:Chapter 04 00:22:52.956 : en:Chapter 05 00:27:07.210 : en:Chapter 06 00:32:41.252 : en:Chapter 07 00:36:40.658 : en:Chapter 08 00:39:43.133 : en:Chapter 09 00:45:31.439 : en:Chapter 10 00:50:34.784 : en:Chapter 11 00:55:29.788 : en:Chapter 12 01:02:55.316 : en:Chapter 13 01:10:22.472 : en:Chapter 14 01:15:53.845 : en:Chapter 15 01:17:20.807 : en:Chapter 16
[+] Скриншоты

Всего файлов в раздаче: 1 
Migration.2023.1080p.WEB-DL.UKR.ENG.mkv5.14 GB

Похожие раздачи по запросу - Миграция
Сегодня magnet Миграция / Migration (2023) BDRip 720p от DoMiNo селезень | P 3.08 GB ↑ 0 ↓ 0
Вчера magnet Миграция / Migration (2023) BDRip от MegaPeer | P 1.46 GB ↑ 0 ↓ 0
Вчера magnet Миграция / Migration (2023) BDRip 1080p от ExKinoRay | P 10.29 GB ↑ 0 ↓ 0
2024-02-04 magnet Миграция / Переліт / Migration (2023) WEB-DL-HEVC 2160p | 4K | HDR | Dolby Vision Profile 8 | D | Line | UKR 14.51 GB ↑ 0 ↓ 0
2024-02-02 magnet Миграция / Migration (2023) WEB-DL 1080p от Jaskier | P | Jaskier 5.29 GB ↑ 0 ↓ 0
2024-01-29 magnet Миграция / Migration (2023) WEB-DLRip-AVC | КПК | P | TVShows 394.49 MB ↑ 0 ↓ 0
2024-01-29 magnet Миграция / Migration (2023) WEB-DL 1080p от New-Team | P | TVShows, Jaskier 2К5.36 GB ↑ 0 ↓ 0

Комментарии


Зарегистрируйтесь чтобы добавить комментарий
Торрент клиент
byTorrent - программа для загрузки торрент-файлов.

Скачать byTorrent.exe (1,5 МБ)

Скачать byTorrent.zip (0,6 МБ)

Поддержи torrent.by
российских рублей
(300 российских рублей это 4$)

Обратная связь rss

End game ©